Дикий, дикий Запад / Wild Wild West (1999) BDRip 720p

 
Автор Сообщение

sergej644 ®

Пол:

Стаж: 4 года 11 месяцев

Сообщений: 6043

Откуда: Soviet Union



Награды: Нет

Торрент-статистика

Создавать темы 15-Дек-2014 17:44

[Цитировать]

Дикий, дикий Запад / Wild Wild West (1999) BDRip
Год выпуска: 1999
Производство: USA / Peters Entertainment, Sonnenfeld Josephson Worldwide Entertainment, Todman, Simon, LeMasters Productions
Жанр: фантастика, боевик, комедия, вестерн
Режиссер: Барри Зонненфельд
Актеры: Уилл Смит, Кевин Клайн, Кеннет Брана, Сальма Хайек, М. Эммет Уолш, Тед Левайн, Фредерик Ван дер Вал, Мусетта Вандер, София Энг, Бай Лин
Описание фильма: Два суперагента 70-х годов позапрошлого века, располагающие технологическими штучками, спасают президента США Гранта от злодея-изобретателя Лавлэйса, ведущего борьбу за обладание южными штатами. Обозленный на весь мир, безногий калека при отсутствии детородного органа окружил себя целым гаремом красавиц, чем, вероятно, постоянно поддерживал в себе накал ненависти.
Один из суперагентов — лихой и обаятельный чернокожий стрелок Джим Уэст, а другой — Артемус Гордон, белый джентльмен с манерами англичанина. На их стороне и знойная красотка Рита, плененная гигантским механическим пауком.
Перевод: профессиональный (полное дублирование), профессиональный (многоголосый закадровый), авторский (одноголосый закадровый)
Вид субтитров: вшитые, отключаемые
Язык субтитров: русские, английские (Full, SDH)

Продолжительность: 01:46:00
Качество: BDRip (720p)
Видео: MPEG-4 AVC/H.264, 1280 x 720 (16:9), 8 390 kbps, 23.976 fps, 0.380 b/px
Аудио # 1: AC3, 6 ch, 384 kbps, 48 000 Hz [дублированный (R5)]
Аудио # 2: АС3, 2 ch, 192 kbps, 48 000 Hz [многоголосый закадровый (ТК Россия из личной коллекции 'alenavova')]
Аудио # 3: AC3, 6 ch, 640 kbps, 48 000 Hz [одноголосый закадровый (П.Санаев)]
Аудио # 4: AC3, 2 ch, 192 kbps, 48 000 Hz [одноголосый закадровый (А.Кашкин (Первомайский))]
Аудио # 5: DTS, 6 ch, 1509 kbps, 48 000 Hz [оригинальный]

MediaInfo

Общее
Уникальный идентификатор : 230494203799926269390415671580922218662 (0xAD6791A41FF969218A9771C6E29008A6)
Полное имя : E:Torrent - Video[1999] Дикий, дикий Запад [BDRip] [720p].mkv
Формат : Matroska
Версия формата : Version 4 / Version 2
Размер файла : 8,37 Гбайт
Продолжительность : 1 ч. 46 м.
Общий поток : 11,3 Мбит/сек
Название фильма : Дикий, дикий Запад / Wild Wild West (1999) BDRip [720p]
Дата кодирования : UTC 2014-12-13 22:01:47
Программа кодирования : mkvmerge v7.4.0 ('Circles') 32bit built on Dec 12 2014 12:10:09
Библиотека кодирования : libebml v1.3.0 + libmatroska v1.4.1
DURATION : 01:45:26.362000000
NUMBER_OF_FRAMES : 1192
NUMBER_OF_BYTES : 43045
_STATISTICS_WRITING_APP : mkvmerge v7.4.0 ('Circles') 32bit built on Dec 12 2014 12:10:09
_STATISTICS_WRITING_DATE_UTC : 2014-12-13 22:01:47
_STATISTICS_TAGS : BPS DURATION NUMBER_OF_FRAMES NUMBER_OF_BYTES
Видео
Идентификатор : 1
Формат : AVC
Формат/Информация : Advanced Video Codec
Профиль формата : High@L4.1
Параметр CABAC формата : Да
Параметр ReFrames формата : 8 кадров
Идентификатор кодека : V_MPEG4/ISO/AVC
Продолжительность : 1 ч. 46 м.
Битрейт : 8390 Кбит/сек
Ширина : 1280 пикселей
Высота : 720 пикселей
Соотношение сторон : 16:9
Режим частоты кадров : Постоянный
Частота кадров : 23,976 кадра/сек
Цветовое пространство : YUV
Субдискретизация насыщенности : 4:2:0
Битовая глубина : 8 бит
Тип развёртки : Прогрессивная
Бит/(Пиксели*Кадры) : 0.380
Размер потока : 6,05 Гбайт (72%)
Заголовок : [1999] Дикий, дикий Запад / Wild Wild West [BDRip] [720p]
Библиотека кодирования : x264 core 115 r1995 c1e60b9
Настройки программы : cabac=1 / ref=8 / deblock=1:-3:-3 / analyse=0x3:0x113 / me=tesa / subme=10 / psy=1 / psy_rd=1.10:0.00 / mixed_ref=1 / me_range=24 / chroma_me=1 / trellis=2 / 8x8dct=1 / cqm=0 / deadzone=21,11 / fast_pskip=0 / chroma_qp_offset=-2 / threads=12 / sliced_threads=0 / nr=0 / decimate=0 / interlaced=0 / bluray_compat=0 / constrained_intra=0 / bframes=9 / b_pyramid=2 / b_adapt=2 / b_bias=0 / direct=3 / weightb=1 / open_gop=0 / weightp=2 / keyint=250 / keyint_min=23 / scenecut=40 / intra_refresh=0 / rc_lookahead=60 / rc=2pass / mbtree=0 / bitrate=8390 / ratetol=1.0 / qcomp=0.70 / qpmin=0 / qpmax=69 / qpstep=4 / cplxblur=20.0 / qblur=0.5 / vbv_maxrate=50000 / vbv_bufsize=62500 / nal_hrd=none / ip_ratio=1.40 / pb_ratio=1.30 / aq=1:0.95
Язык : English
Default : Да
Forced : Нет
Коэффициенты матрицы : BT.709
colour_range : Limited
DURATION : 01:46:00.104000000
NUMBER_OF_FRAMES : 152490
NUMBER_OF_BYTES : 6667087216
_STATISTICS_WRITING_APP : mkvmerge v7.4.0 ('Circles') 32bit built on Dec 12 2014 12:10:09
_STATISTICS_WRITING_DATE_UTC : 2014-12-13 22:01:47
_STATISTICS_TAGS : BPS DURATION NUMBER_OF_FRAMES NUMBER_OF_BYTES
Аудио #1
Идентификатор : 2
Формат : AC-3
Формат/Информация : Audio Coding 3
Расширение режима : CM (complete main)
Параметр Endianness формата : Big
Идентификатор кодека : A_AC3
Продолжительность : 1 ч. 46 м.
Вид битрейта : Постоянный
Битрейт : 384 Кбит/сек
Каналы : 6 каналов
Расположение каналов : Front: L C R, Side: L R, LFE
Частота : 48,0 КГц
Битовая глубина : 16 бит
Метод сжатия : С потерями
Размер потока : 291 Мбайт (3%)
Заголовок : Дублированный (R5)
Язык : Russian
Default : Да
Forced : Нет
Аудио #2
Идентификатор : 3
Формат : AC-3
Формат/Информация : Audio Coding 3
Расширение режима : CM (complete main)
Параметр Endianness формата : Big
Идентификатор кодека : A_AC3
Продолжительность : 1 ч. 46 м.
Вид битрейта : Постоянный
Битрейт : 192 Кбит/сек
Каналы : 2 канала
Расположение каналов : Front: L R
Частота : 48,0 КГц
Битовая глубина : 16 бит
Метод сжатия : С потерями
Размер потока : 146 Мбайт (2%)
Заголовок : Многоголосый закадровый (ТК Россия из личной коллекции 'alenavova')
Язык : Russian
Default : Нет
Forced : Нет
Аудио #3
Идентификатор : 4
Формат : AC-3
Формат/Информация : Audio Coding 3
Расширение режима : CM (complete main)
Параметр Endianness формата : Big
Идентификатор кодека : A_AC3
Продолжительность : 1 ч. 46 м.
Вид битрейта : Постоянный
Битрейт : 640 Кбит/сек
Каналы : 6 каналов
Расположение каналов : Front: L C R, Side: L R, LFE
Частота : 48,0 КГц
Битовая глубина : 16 бит
Метод сжатия : С потерями
Размер потока : 485 Мбайт (6%)
Заголовок : Одноголосый закадровый (П.Санаев)
Язык : Russian
Default : Нет
Forced : Нет
Аудио #4
Идентификатор : 5
Формат : AC-3
Формат/Информация : Audio Coding 3
Расширение режима : CM (complete main)
Параметр Endianness формата : Big
Идентификатор кодека : A_AC3
Продолжительность : 1 ч. 46 м.
Вид битрейта : Постоянный
Битрейт : 192 Кбит/сек
Каналы : 2 канала
Расположение каналов : Front: L R
Частота : 48,0 КГц
Битовая глубина : 16 бит
Метод сжатия : С потерями
Размер потока : 146 Мбайт (2%)
Заголовок : Одноголосый закадровый (А.Кашкин)
Язык : Russian
Default : Нет
Forced : Нет
Аудио #5
Идентификатор : 6
Формат : DTS
Формат/Информация : Digital Theater Systems
Режим : 16
Параметр Endianness формата : Big
Идентификатор кодека : A_DTS
Продолжительность : 1 ч. 46 м.
Вид битрейта : Постоянный
Битрейт : 1509 Кбит/сек
Каналы : 6 каналов
Расположение каналов : Front: L C R, Side: L R, LFE
Частота : 48,0 КГц
Битовая глубина : 24 бит
Метод сжатия : С потерями
Задержка видео : 22 мс.
Размер потока : 1,12 Гбайт (13%)
Заголовок : Оригинальный
Язык : English
Default : Нет
Forced : Нет
Текст #1
Идентификатор : 7
Формат : UTF-8
Идентификатор кодека : S_TEXT/UTF8
Идентификатор кодека/Информация : UTF-8 Plain Text
Заголовок : Russian
Язык : Russian
Default : Нет
Forced : Нет
Текст #2
Идентификатор : 8
Формат : UTF-8
Идентификатор кодека : S_TEXT/UTF8
Идентификатор кодека/Информация : UTF-8 Plain Text
Заголовок : English
Язык : English
Default : Нет
Forced : Нет
Текст #3
Идентификатор : 9
Формат : UTF-8
Идентификатор кодека : S_TEXT/UTF8
Идентификатор кодека/Информация : UTF-8 Plain Text
Заголовок : English (SDH)
Язык : English
Default : Нет
Forced : Нет
Меню
00:00:00.000 : en:01. Not So Smart
00:01:02.645 : en:02. Credits
00:03:14.694 : en:03. Water Sport
00:06:13.790 : en:04. She Works Alone
00:07:55.975 : en:05. Uneasy Rider
00:10:41.891 : en:06. Bad Rescue Timing (Arise)
00:14:42.715 : en:07. Presidential Orders
00:19:42.431 : en:08. Settling This Like Men
00:23:10.806 : en:09. Morton's Eye View
00:25:12.385 : en:10. Felling Each Other's
00:28:01.096 : en:11. Coming-Out Party
00:33:22.208 : en:12. Picture-Perfect Aim
00:36:49.540 : en:13. Two Rescues..
00:42:11.362 : en:14. Mcgrath's Last Stand
00:46:35.167 : en:15. The Devil Responsible
00:49:46.608 : en:16. Another Passenger
00:55:16.438 : en:17. Track Attack
00:59:58.511 : en:18. Neck and Neck
01:04:30.992 : en:19. Mutual Attraction
01:07:34.008 : en:20. Score to Settle
01:09:09.395 : en:21. An Invention That Works
01:13:22.981 : en:22. Along Came a Spider
01:16:49.563 : en:23. Divided States
01:19:22.424 : en:24. The New Girl
01:24:44.329 : en:25. Air Gordon
01:26:36.608 : en:26. Like a Desert Wasp
01:28:25.383 : en:27. Whuppin' Down Below
01:32:09.190 : en:28. Two Legs More
01:35:49.535 : en:29. Hanging Tough
01:37:51.866 : en:30. Each Other
01:40:42.453 : en:31. End Credits

Скриншоты

[Профиль] [ЛС]
Кто просматривает тему:

Форум Тема Автор Размер
Nat Geo Wild Nat Geo Wild: Дикий Борнео / Wild Borneo (Alex Gregory) [1998 г., Документальный, природа, флора, фауна, HDTVRip 720p] skorpionN 1.49 GB
Nat Geo Wild Nat Geo Wild: Дикий Запад Африки. Жеребцы пустыни Намиб / Africa's Wild West. Stallions of the Namib Desert (Franz Leopold Schmelzer) [2014 г., Документальный, природа, флора, фауна, HDTVRip... skorpionN 1.59 GB
Viasat Nature Viasat Nature: Дикий Cевер / Wild North [серии 1-3 из 3] (Arne Naevra, Torgeir Lande, Adam Schmedes) [2015 г., Документальный, научно-познавательный, фауна, флора, SATRip] skorpionN 2.34 GB
Отечественные cериалы Дикий 4 [S04] (2014) HDTV 1080i достали все 80.85 GB
Фильмы (HD Rips | 720p, 1080p) Дикий город / Bou Chau Mai Sing (2015) BDRip 720р | L2 достали все 4.5 GB
Фильмы (HD Rips | 720p, 1080p) Дикий город / Bou Chau Mai Sing (2015) WEBRip 1080p | L2 достали все 2.26 GB
National Geographic Дикий Запад / National Geographic: The Wild West (Энди Митчел / Andy Mitchell) [2013, Документальный, BDRip] reversefile 2.17 GB
Фильмы 2015 года Дикий мёд / Delibal (2015) WEBRip | L1 достали все 1.35 GB
Показать сообщения:    

Текущее время: Сегодня 22:34

Часовой пояс: GMT



Вы не можете начинать темы
Вы не можете отвечать на сообщения
Вы не можете редактировать свои сообщения
Вы не можете удалять свои сообщения
Вы не можете голосовать в опросах
Вы не можете прикреплять файлы к сообщениям
Вы не можете скачивать файлы