Дикий город / Bou Chau Mai Sing (2015) BDRip 720р | L2

 
Автор Сообщение

достали все ®

Пол:

Стаж: 1 год 8 месяцев

Сообщений: 6611



Награды: 12 (Подробнее)

Top Releaser 3 (Количество: 1) Mega Seeder 5 (Количество: 1) Top Releaser 2 (Количество: 1)
Торрент-статистика

Создавать темы 11-Ноя-2015 04:07

[Цитировать]

Информация о фильме
Название: Дикий город
Оригинальное название: Wild City / Bou Chau Mai Sing
Год выхода: 2015
Жанр: боевик, триллер, криминал
Режиссер: Ринго Лам
В ролях: Луис Ку, Шон Юе, Лия Тун, Сяо-Чуань Чан, Джек Као, Сэм Ли, Филип Нг, Дейв Вон, Саймон Ям
О фильме:
Отставной полицейский, содержащий бар, помогает пьяной девушке и привозит ее домой. Когда его брат отправляется, чтобы проводить, проспавшуюся после бурной ночи девушку, на них нападают бандиты и увозят незнакомку в неизвестном направлении. Он бросается ее спасать, понимая, что все больше погружается пучину лжи и преступлений, который он, верный зову полицейского долга, должен будет распутать и восстановить справделивость.
Страна: Гонконг
Студия: Beijing East Light Film Co., Mei Ah Films Production Co. Ltd., One Cool Film Production
Продолжительность: 01:41:28
Перевод: Любительский (двухголосый, закадровый) [den904 & DeadSno]

Файл
Качество: BDRip 720р
Формат: МКV
Видео кодек: AVC
Аудио кодек: AC3 / DTS
Видео: 1280x544 (2.35:1), 24.000 fps, MPEG-4 AVC ~4 659 kbps avg, 0.279 bits/рixel
Аудио №1: 48.0 kHz, AC3 Dolby Digital, 2/0 (L,R) ch, ~192 kbps avg [RUS]
Аудио №2: 48.0 kHz, DTS, 3/2 (L,C,R,l,r) + LFE ch, ~1 509 kbps avg [CHI]
Субтитры: английские | UTF-8 Plain Text
Дата премьеры (мир): 25 июля 2015

Media Info

General
Unique ID : 242486131008632536406353856935500515136 (0xB66D214CF9E6614595019BBF1D690740)
Complete name : Wild.City.2015.L2.BDRip.720p.mkv
Format : Matroska
Format version : Version 4 / Version 2
File size : 4.50 GiB
Duration : 1h 41mn
Overall bit rate : 6 349 Kbps
Encoded date : UTC 2015-11-11 00:52:05
Writing application : mkvmerge v7.9.0 ('Birds') 32bit
Writing library : libebml v1.3.1 + libmatroska v1.4.2
Video
ID : 1
Format : AVC
Format/Info : Advanced Video Codec
Format profile : High@L4.1
Format settings, CABAC : Yes
Format settings, ReFrames : 5 frames
Codec ID : V_MPEG4/ISO/AVC
Duration : 1h 41mn
Bit rate : 4 659 Kbps
Width : 1 280 pixels
Height : 544 pixels
Display aspect ratio : 2.35:1
Frame rate mode : Constant
Frame rate : 24.000 fps
Color space : YUV
Chroma subsampling : 4:2:0
Bit depth : 8 bits
Scan type : Progressive
Bits/(Pixel*Frame) : 0.279
Stream size : 3.20 GiB (71%)
Writing library : x264 core 148 r2597 e86f3a1
Encoding settings : cabac=1 / ref=5 / deblock=1:0:0 / analyse=0x3:0x133 / me=umh / subme=7 / psy=1 / psy_rd=1.00:0.00 / mixed_ref=1 / me_range=16 / chroma_me=1 / trellis=1 / 8x8dct=1 / cqm=0 / deadzone=21,11 / fast_pskip=0 / chroma_qp_offset=-2 / threads=17 / lookahead_threads=2 / sliced_threads=0 / nr=0 / decimate=1 / interlaced=0 / bluray_compat=0 / constrained_intra=0 / bframes=3 / b_pyramid=2 / b_adapt=1 / b_bias=0 / direct=1 / weightb=1 / open_gop=0 / weightp=2 / keyint=250 / keyint_min=23 / scenecut=40 / intra_refresh=0 / rc_lookahead=40 / rc=2pass / mbtree=1 / bitrate=4659 / ratetol=1.0 / qcomp=0.60 / qpmin=0 / qpmax=69 / qpstep=4 / cplxblur=20.0 / qblur=0.5 / ip_ratio=1.40 / aq=1:1.00
Language : Chinese
Default : Yes
Forced : No
Audio #1
ID : 2
Format : AC-3
Format/Info : Audio Coding 3
Mode extension : CM (complete main)
Format settings, Endianness : Big
Codec ID : A_AC3
Duration : 1h 41mn
Bit rate mode : Constant
Bit rate : 192 Kbps
Channel(s) : 2 channels
Channel positions : Front: L R
Sampling rate : 48.0 KHz
Bit depth : 16 bits
Compression mode : Lossy
Delay relative to video : 16ms
Stream size : 139 MiB (3%)
Title : 2D
Language : Russian
Default : No
Forced : No
Audio #2
ID : 3
Format : DTS
Format/Info : Digital Theater Systems
Mode : 16
Format settings, Endianness : Big
Codec ID : A_DTS
Duration : 1h 41mn
Bit rate mode : Constant
Bit rate : 1 509 Kbps
Channel(s) : 6 channels
Channel positions : Front: L C R, Side: L R, LFE
Sampling rate : 48.0 KHz
Bit depth : 24 bits
Compression mode : Lossy
Stream size : 1.07 GiB (24%)
Language : Chinese
Default : No
Forced : No
Text
ID : 4
Format : UTF-8
Codec ID : S_TEXT/UTF8
Codec ID/Info : UTF-8 Plain Text
Title : English-Forced
Language : English
Default : Yes
Forced : Yes

Скриншоты

[Профиль] [ЛС]
Кто просматривает тему:

Форум Тема Автор Размер
Nat Geo Wild Nat Geo Wild: Дикий Борнео / Wild Borneo (Alex Gregory) [1998 г., Документальный, природа, флора, фауна, HDTVRip 720p] skorpionN 1.49 GB
Nat Geo Wild Nat Geo Wild: Дикий Запад Африки. Жеребцы пустыни Намиб / Africa's Wild West. Stallions of the Namib Desert (Franz Leopold Schmelzer) [2014 г., Документальный, природа, флора, фауна, HDTVRip... skorpionN 1.59 GB
Viasat Nature Viasat Nature: Дикий Cевер / Wild North [серии 1-3 из 3] (Arne Naevra, Torgeir Lande, Adam Schmedes) [2015 г., Документальный, научно-познавательный, фауна, флора, SATRip] skorpionN 2.34 GB
Отечественные cериалы Дикий 4 [S04] (2014) HDTV 1080i достали все 80.85 GB
Фильмы (HD Rips | 720p, 1080p) Дикий город / Bou Chau Mai Sing (2015) WEBRip 1080p | L2 достали все 2.26 GB
National Geographic Дикий Запад / National Geographic: The Wild West (Энди Митчел / Andy Mitchell) [2013, Документальный, BDRip] reversefile 2.17 GB
Фильмы 2015 года Дикий мёд / Delibal (2015) WEBRip | L1 достали все 1.35 GB
Фильмы (HD Rips | 720p, 1080p) Дикий, дикий Запад / Wild Wild West (1999) BDRip 720p sergej644 8.37 GB
Показать сообщения:    

Текущее время: Сегодня 14:58

Часовой пояс: GMT



Вы не можете начинать темы
Вы не можете отвечать на сообщения
Вы не можете редактировать свои сообщения
Вы не можете удалять свои сообщения
Вы не можете голосовать в опросах
Вы не можете прикреплять файлы к сообщениям
Вы не можете скачивать файлы