Дикие сердца / Our Wild Hearts (2013) HDTV 1080i

 
Автор Сообщение

sergej644 ®

Пол:

Стаж: 4 года 11 месяцев

Сообщений: 6041

Откуда: Soviet Union



Награды: Нет

Торрент-статистика

Создавать темы 23-Янв-2015 20:56

[Цитировать]

Информация о фильме
Название: Дикие сердца
Оригинальное название: Our Wild Hearts
Год выхода: 2013
Жанр: семейный, вестерн
Режиссер: Рик Шродер
В ролях: Элуиз Деджориа, Вероника Данн, Мартин Коув, Анджела Линдвэлл, Крис Дж. Келли, Карл Мергенталер, Клифф Поттс, Камбри Шродер, Холден Шродер, Люк Шродер
О фильме:
Уиллоу, пытающаяся найти себя в жизни девочка-подросток, одержима идеей найти своего отца, которого она никогда не видела. Она бросает свою праздную жизнь в Малибу и отправляется в горы Сьерра-Невада, где она неожиданно заявляется к местному ковбою Джеку, не подозревающему, что у него оказывается есть дети. На ранчо Уиллоу находит общий язык с диким и неподдающимся мустангом по кличке Браво. В то время как Джек хочет обуздать и приручить великолепного скакуна, Уиллоу уверена, что Браво должен быть свободной лошадью. Станет ли дикий жеребец, который свёл взрослую дочь и потерянного отца вместе, причиной очередного разрыва?

Страна: США
Продолжительность: 01:25:29
Перевод: Профессиональный (многоголосый закадровый)
Файл
Кодек: H.264
Качество: HDTV 1080i
Видео: 1920x1080 (16:9), 8926 Кбит/сек, 25.000 fps
Звук: MP-2, 48000 Hz, 192 Кбит/сек, 2 ch
Субтитры: нет
Семпл

MediaInfo

Видео
Идентификатор : 224 (0xE0)
Идентификатор меню : 1 (0x1)
Формат : AVC
Формат/Информация : Advanced Video Codec
Профиль формата : High@L4.1
Параметр CABAC формата : Да
Параметр ReFrames формата : 3 кадра
Идентификатор кодека : 27
Продолжительность : 1 ч. 25 м.
Вид битрейта : Постоянный
Битрейт : 8926 Кбит/сек
Ширина : 1920 пикселей
Высота : 1080 пикселей
Соотношение сторон : 16:9
Частота кадров : 25,000 кадров/сек
Стандарт вещания : PAL
Цветовое пространство : YUV
Субдискретизация насыщенности : 4:2:0
Битовая глубина : 8 бит
Тип развёртки : Чересстрочная
Порядок развёртки : Верхнее поле первое
Бит/(Пиксели*Кадры) : 0.172
Размер потока : 5,23 Гбайт (93%)
Основные цвета : BT.709
Характеристики трансфера : BT.709
Коэффициенты матрицы : BT.709
Аудио
Идентификатор : 192 (0xC0)
Идентификатор меню : 1 (0x1)
Формат : MPEG Audio
Версия формата : Version 1
Профиль формата : Layer 2
Идентификатор кодека : 3
Продолжительность : 1 ч. 25 м.
Вид битрейта : Постоянный
Битрейт : 192 Кбит/сек
Каналы : 2 канала
Частота : 48,0 КГц
Метод сжатия : С потерями
Задержка видео : 16 мс.
Размер потока : 117 Мбайт (2%)
Язык : Russian

Скриншоты

Релиз от: Rmk80disco
[Профиль] [ЛС]
Кто просматривает тему:

Форум Тема Автор Размер
Nat Geo Wild Nat Geo Wild: Дикие Гавайи / Wild Hawaii (Wildes Hawaii) [серии 1-2 из 2] (Карен Гринфилд / Karen Greenfield) [2013 г., Документальный, природа, флора, фауна, BDRip 720p] skorpionN 3.91 GB
Nat Geo Wild Nat Geo Wild: Дикие животные Японии / Japan's Wild Year (Lorne Townend) [2014 г., Документальный, флора, фауна, HDTVRip-AVC 720p] skorpionN 1.59 GB
Nat Geo Wild Nat Geo Wild: Дикие земли Европы / Europe's Great Wilderness [серии 1-3 из 3] (Allison Bean) [2015 г., Документальный, природа, флора, фауна, HDTVRip-AVC 720p] skorpionN 4.78 GB
Nat Geo Wild Nat Geo Wild: Дикие острова: Невиданные острова / Unseen Islands [сезон 1 серии 1-2 из 2] (Stewart McPherson) [2015 г., Документальный, научно-познавательный, HDTVRip 720p] skorpionN 3.19 GB
Документальные HD Дикие белые львицы / White Lions - Born Wild (Джо Кеннеди / Joe Kennedy) [2012, Документальный, животные, HDTVRip 720p] TorrentFilm 4.04 GB
Документальные HD Дикие Гавайи. Тайны морских глубин / Wild Hawaii. Secrets of the Deep (Карен Гринфилд) [2013, Документальный, BDRip 720p] TorrentFilm 1.91 GB
Фильмы (HD Rips | 720p, 1080p) Дикие истории / Relatos salvajes (2014) BDRip 1080p | iTunes sergej644 5.92 GB
Фильмы (HD Rips | 720p, 1080p) Дикие истории / Relatos salvajes (2014) WEB-DL 1080p sergej644 3.78 GB
Показать сообщения:    

Текущее время: Сегодня 21:01

Часовой пояс: GMT



Вы не можете начинать темы
Вы не можете отвечать на сообщения
Вы не можете редактировать свои сообщения
Вы не можете удалять свои сообщения
Вы не можете голосовать в опросах
Вы не можете прикреплять файлы к сообщениям
Вы не можете скачивать файлы