Дикие лебеди. Левша. Бобик в гостях у Барбоса. (1963-1977) DVDRip от New-Team

 
Автор Сообщение

Белочка ®

Пол:

Стаж: 5 лет 1 месяц

Сообщений: 2089



Награды: 1 (Подробнее)

Girls (Количество: 1)
Торрент-статистика

Создавать темы 25-Окт-2014 22:47

[Цитировать]

Страна: СССР
Производство: Союз мультфильм
Жанр: мультфильм
Год выпуска: 1963-1977
Продолжительность: 00:56:59, 00:42:30, 00:08:41
Перевод: не требуется
Оригинальная аудиодорожка: русский
Cубтитры: нет
Режиссер: Вера Цехановская, Иван Иванов-Вано, Владимир Попов
Описание:
Дикие лебеди Полнометражный мультипликационный фильм «Дикие лебеди», снятый по мотивам известной сказки Г. Х. Андерсена....
Левша Экранизация повести Н. Лескова об удивительном мастере Левше, который «аглицкую» блоху подковал...
Бобик в гостях у Барбоса Рано утром дедушка выгуливает своего домашнего любимца — пса Барбоса. Потом оставляет его одного дома, а сам уходит до вечера, оставив Барбоса «за хозяина». Псу скучно одному, и он приглашает в гости дворнягу Бобика. Перед гостем Барбос начинает строить из себя настоящего хозяина квартиры…- -Исходник: DVD5 и BDRemux
Качество: DVDRip и BDRip
Формат: AVI
Видео: 720x352 (2,045:1), 25 fps, XviD ~ 1727 kbps avg, 0.273 bit/pixel Дикие лебеди (DVD5)
Видео: 688x512 (4:3), 25 fps, XviD ~ 1727 kbps avg, 0.196 bit/pixel Левша (DVD5)
Видео: 720x544 (4:3), 25 fps, XviD ~ 1715 kbps avg, 0.175 bit/pixel Бобик в гостях у Барбоса (BDRemux)
Аудио: 48 kHz, AC3, 2 ch, 192.00 kbps

Отчёт MediaInfo

Общее
Полное имя : Dikie.lebedi.1963.DVDRip_[Youtracker]_by_AVP Studio.avi
Формат : AVI
Формат/Информация : Audio Video Interleave
Размер файла : 786 Мбайт
Продолжительность : 56 м.
Общий поток : 1928 Кбит/сек
Программа кодирования : VirtualDubModRus 1.5.10.2 (build 2542/release)
Библиотека кодирования : VirtualDubMod build 2542/release
Видео
Идентификатор : 0
Формат : MPEG-4 Visual
Профиль формата : Advanced Simple@L5
Параметр BVOP формата : 1
Параметр QPel формата : Нет
Параметр GMC формата : Без точки перехода
Параметр матрицы формата : Выборочная
Идентификатор кодека : XVID
Идентификатор кодека/Подсказка : XviD
Продолжительность : 56 м.
Битрейт : 1727 Кбит/сек
Ширина : 720 пикселей
Высота : 352 пикселя
Соотношение сторон : 2,045
Частота кадров : 25,000 кадров/сек
Цветовое пространство : YUV
Субдискретизация насыщенности : 4:2:0
Битовая глубина : 8 бит
Тип развёртки : Прогрессивная
Метод сжатия : С потерями
Бит/(Пиксели*Кадры) : 0.273
Размер потока : 704 Мбайт (90%)
Библиотека кодирования : XviD 73
Аудио
Идентификатор : 1
Формат : AC-3
Формат/Информация : Audio Coding 3
Расширение режима : CM (complete main)
Идентификатор кодека : 2000
Продолжительность : 56 м.
Вид битрейта : Постоянный
Битрейт : 192 Кбит/сек
Каналы : 2 канала
Расположение каналов : Front: L R
Частота : 48,0 КГц
Битовая глубина : 16 бит
Метод сжатия : С потерями
Размер потока : 78,3 Мбайт (10%)
Выравнивание : Разделение по промежуткам
Продолжительность промежутка : 40 мс. (1,00 видеокадр)
Время предзагрузки промежутка : 500 мс
Общее
Полное имя : Levsha.1964.DVDRip_[Youtracker]_by_AVP Studio.avi
Формат : AVI
Формат/Информация : Audio Video Interleave
Размер файла : 980 Мбайт
Продолжительность : 42 м.
Общий поток : 3222 Кбит/сек
Программа кодирования : VirtualDubModRus 1.5.10.2 (build 2542/release)
Библиотека кодирования : VirtualDubMod build 2542/release
Видео
Идентификатор : 0
Формат : MPEG-4 Visual
Профиль формата : Advanced Simple@L5
Параметр BVOP формата : 1
Параметр QPel формата : Нет
Параметр GMC формата : Без точки перехода
Параметр матрицы формата : Выборочная
Идентификатор кодека : XVID
Идентификатор кодека/Подсказка : XviD
Продолжительность : 42 м.
Битрейт : 3020 Кбит/сек
Ширина : 688 пикселей
Высота : 512 пикселей
Соотношение сторон : 4:3
Частота кадров : 25,000 кадров/сек
Цветовое пространство : YUV
Субдискретизация насыщенности : 4:2:0
Битовая глубина : 8 бит
Тип развёртки : Прогрессивная
Метод сжатия : С потерями
Бит/(Пиксели*Кадры) : 0.343
Размер потока : 918 Мбайт (94%)
Библиотека кодирования : XviD 73
Аудио
Идентификатор : 1
Формат : AC-3
Формат/Информация : Audio Coding 3
Расширение режима : CM (complete main)
Идентификатор кодека : 2000
Продолжительность : 42 м.
Вид битрейта : Постоянный
Битрейт : 192 Кбит/сек
Каналы : 2 канала
Расположение каналов : Front: L R
Частота : 48,0 КГц
Битовая глубина : 16 бит
Метод сжатия : С потерями
Размер потока : 58,4 Мбайт (6%)
Выравнивание : Разделение по промежуткам
Продолжительность промежутка : 40 мс. (1,00 видеокадр)
Время предзагрузки промежутка : 500 мс
Общее
Полное имя : Bobik.v.gostyah.u.Barbosa.1977.DVDRip_[Youtracker]_by_AVP Studio.avi
Формат : AVI
Формат/Информация : Audio Video Interleave
Размер файла : 119 Мбайт
Продолжительность : 8 м. 41 с.
Общий поток : 1917 Кбит/сек
Программа кодирования : VirtualDubModRus 1.5.10.2 (build 2542/release)
Библиотека кодирования : VirtualDubMod build 2542/release
Видео
Идентификатор : 0
Формат : MPEG-4 Visual
Профиль формата : Advanced Simple@L5
Параметр BVOP формата : 1
Параметр QPel формата : Нет
Параметр GMC формата : Без точки перехода
Параметр матрицы формата : Выборочная
Идентификатор кодека : XVID
Идентификатор кодека/Подсказка : XviD
Продолжительность : 8 м. 41 с.
Битрейт : 1715 Кбит/сек
Ширина : 720 пикселей
Высота : 544 пикселя
Соотношение сторон : 4:3
Частота кадров : 25,000 кадров/сек
Цветовое пространство : YUV
Субдискретизация насыщенности : 4:2:0
Битовая глубина : 8 бит
Тип развёртки : Прогрессивная
Метод сжатия : С потерями
Бит/(Пиксели*Кадры) : 0.175
Размер потока : 107 Мбайт (89%)
Библиотека кодирования : XviD 73
Аудио
Идентификатор : 1
Формат : AC-3
Формат/Информация : Audio Coding 3
Расширение режима : CM (complete main)
Идентификатор кодека : 2000
Продолжительность : 8 м. 41 с.
Вид битрейта : Постоянный
Битрейт : 192 Кбит/сек
Каналы : 2 канала
Расположение каналов : Front: L R
Частота : 48,0 КГц
Битовая глубина : 16 бит
Метод сжатия : С потерями
Размер потока : 11,9 Мбайт (10%)
Выравнивание : Разделение по промежуткам
Продолжительность промежутка : 40 мс. (1,00 видеокадр)
Время предзагрузки промежутка : 500 мс

Скриншоты

[Профиль] [ЛС]
Кто просматривает тему:

Форум Тема Автор Размер
Nat Geo Wild Nat Geo Wild: Дикие Гавайи / Wild Hawaii (Wildes Hawaii) [серии 1-2 из 2] (Карен Гринфилд / Karen Greenfield) [2013 г., Документальный, природа, флора, фауна, BDRip 720p] skorpionN 3.91 GB
Nat Geo Wild Nat Geo Wild: Дикие животные Японии / Japan's Wild Year (Lorne Townend) [2014 г., Документальный, флора, фауна, HDTVRip-AVC 720p] skorpionN 1.59 GB
Nat Geo Wild Nat Geo Wild: Дикие земли Европы / Europe's Great Wilderness [серии 1-3 из 3] (Allison Bean) [2015 г., Документальный, природа, флора, фауна, HDTVRip-AVC 720p] skorpionN 4.78 GB
Nat Geo Wild Nat Geo Wild: Дикие острова: Невиданные острова / Unseen Islands [сезон 1 серии 1-2 из 2] (Stewart McPherson) [2015 г., Документальный, научно-познавательный, HDTVRip 720p] skorpionN 3.19 GB
Документальные HD Дикие белые львицы / White Lions - Born Wild (Джо Кеннеди / Joe Kennedy) [2012, Документальный, животные, HDTVRip 720p] TorrentFilm 4.04 GB
Документальные HD Дикие Гавайи. Тайны морских глубин / Wild Hawaii. Secrets of the Deep (Карен Гринфилд) [2013, Документальный, BDRip 720p] TorrentFilm 1.91 GB
Фильмы (HD Rips | 720p, 1080p) Дикие истории / Relatos salvajes (2014) BDRip 1080p | iTunes sergej644 5.92 GB
Фильмы (HD Rips | 720p, 1080p) Дикие истории / Relatos salvajes (2014) WEB-DL 1080p sergej644 3.78 GB
Показать сообщения:    

Текущее время: Сегодня 18:16

Часовой пояс: GMT



Вы не можете начинать темы
Вы не можете отвечать на сообщения
Вы не можете редактировать свои сообщения
Вы не можете удалять свои сообщения
Вы не можете голосовать в опросах
Вы не можете прикреплять файлы к сообщениям
Вы не можете скачивать файлы