Дикие истории / Relatos salvajes (2014) BDRip 1080p | iTunes

 
Автор Сообщение

sergej644 ®

Пол:

Стаж: 4 года 11 месяцев

Сообщений: 6035

Откуда: Soviet Union



Награды: Нет

Торрент-статистика

Создавать темы 02-Мар-2015 17:31

[Цитировать]

Информация о фильме
Название: Дикие истории
Оригинальное название: Relatos salvajes
Год выхода: 2014
Жанр: Триллер, комедия
Режиссер: Дамиан Сифрон
В ролях: Рикардо Дарин, Оскар Мартинес, Леонардо Сбараглиа, Дарио Грандинетти, Лилиана Экерман, Луис Мануэль Альтамирано Гарсиа, Алехандро Анджелини, Дамиан Бенитес, Кристина Бланко, Густаво Бонфигли, Сесар Бордон
О фильме:
Гэбриела Пастернака обижали многие, с кем сводила его жизнь — девушка, учитель музыки, профессор в консерватории, дантист. И вот все они, на свою беду, оказались вместе с ним в одном самолете… Ночью в придорожной закусочной официантка узнает в посетителе ростовщика, который много лет назад довел до самоубийства ее отца. А у поварихи, в прошлом отсидевшей срок, для мести такому гаду сразу нашлось средство — крысиный яд… Городской красавчик ехал на своей мощной Audi по пустынной дороге и решил обогнать старый Peugeot, но сидевший за рулем провинциальный упырь решил не уступать. И вот уже кровавый итог бессмысленного соперничества не за горами…

Страна: Аргентина, Испания
Студия: Corner Producciones, El Deseo S.A., Instituto Nacional de Cine y Artes Audiovisuales
Продолжительность: 02:01:59
Перевод: Дублированный (iTunes)
Файл
Кодек: MPEG-4 AVC/H.264
Качество: BDRip 1080p
Видео: 1920x808, 6116 Kbps, 23.976fps
Звук:
Rus, AC3, 384 kb/s (6 ch), 48 kHz
Spa, AC3, 448 kb/s (6 ch), 48 kHz
Субтитры: Английские

MediaInfo

General
Unique ID : 249158960033677819529728271443841257895 (0xBB72452C18F4F5AF91D05DB9D2BC11A7)
Complete name : D:RipsДикие истории.2014.BDRip.1080p.mkv
Format : Matroska
Format version : Version 2
File size : 5.92 GiB
Duration : 2h 1mn
Overall bit rate : 6 946 Kbps
Movie name : -=WALLEDOL=-
Encoded date : UTC 2015-03-01 08:57:37
Writing application : mkvmerge v4.0.0 ('The Stars were mine') сборка от Jun 6 2010 16:18:42
Writing library : libebml v1.0.0 + libmatroska v1.0.0
Video
ID : 1
Format : AVC
Format/Info : Advanced Video Codec
Format profile : High@L4.1
Format settings, CABAC : Yes
Format settings, ReFrames : 5 frames
Codec ID : V_MPEG4/ISO/AVC
Duration : 2h 1mn
Bit rate : 6 116 Kbps
Width : 1 920 pixels
Height : 808 pixels
Display aspect ratio : 2.40:1
Frame rate mode : Constant
Frame rate : 23.976 fps
Color space : YUV
Chroma subsampling : 4:2:0
Bit depth : 8 bits
Scan type : Progressive
Bits/(Pixel*Frame) : 0.164
Stream size : 5.09 GiB (86%)
Title : Relatos salvajes.2014.BDRip.1080p
Writing library : x264 core 144 r2525 40bb568
Encoding settings : cabac=1 / ref=5 / deblock=1:-3:-3 / analyse=0x3:0x133 / me=umh / subme=10 / psy=1 / psy_rd=1.00:0.10 / mixed_ref=1 / me_range=32 / chroma_me=1 / trellis=2 / 8x8dct=1 / cqm=0 / deadzone=21,11 / fast_pskip=0 / chroma_qp_offset=-3 / threads=6 / lookahead_threads=1 / sliced_threads=0 / nr=0 / decimate=1 / interlaced=0 / bluray_compat=0 / constrained_intra=0 / bframes=6 / b_pyramid=2 / b_adapt=2 / b_bias=0 / direct=3 / weightb=1 / open_gop=0 / weightp=2 / keyint=240 / keyint_min=23 / scenecut=40 / intra_refresh=0 / rc=2pass / mbtree=0 / bitrate=6116 / ratetol=1.0 / qcomp=0.60 / qpmin=0 / qpmax=69 / qpstep=4 / cplxblur=20.0 / qblur=0.5 / ip_ratio=1.40 / pb_ratio=1.30 / aq=1:1.00
Language : Spanish
Default : No
Forced : No
Audio #1
ID : 2
Format : AC-3
Format/Info : Audio Coding 3
Mode extension : CM (complete main)
Format settings, Endianness : Big
Codec ID : A_AC3
Duration : 2h 1mn
Bit rate mode : Constant
Bit rate : 384 Kbps
Channel(s) : 6 channels
Channel positions : Front: L C R, Side: L R, LFE
Sampling rate : 48.0 KHz
Bit depth : 16 bits
Compression mode : Lossy
Stream size : 335 MiB (6%)
Title : iTunes
Language : Russian
Default : Yes
Forced : Yes
Audio #2
ID : 3
Format : AC-3
Format/Info : Audio Coding 3
Mode extension : CM (complete main)
Format settings, Endianness : Big
Codec ID : A_AC3
Duration : 2h 1mn
Bit rate mode : Constant
Bit rate : 448 Kbps
Channel(s) : 6 channels
Channel positions : Front: L C R, Side: L R, LFE
Sampling rate : 48.0 KHz
Bit depth : 16 bits
Compression mode : Lossy
Stream size : 391 MiB (6%)
Language : Spanish
Default : No
Forced : No
Text
ID : 4
Format : UTF-8
Codec ID : S_TEXT/UTF8
Codec ID/Info : UTF-8 Plain Text
Language : English
Default : No
Forced : No
Menu
00:00:00.000 : en:00:00:00.000
00:08:48.820 : en:00:08:48.820
00:20:34.275 : en:00:20:34.275
00:38:56.334 : en:00:38:56.334
01:01:52.709 : en:01:01:52.709
01:25:29.124 : en:01:25:29.124

Лог

x264 [info]: frame I:1209 Avg QP:15.75 size:187683
x264 [info]: frame P:42453 Avg QP:18.15 size: 62059
x264 [info]: frame B:131823 Avg QP:20.14 size: 20710
x264 [info]: consecutive B-frames: 4.3% 6.1% 9.5% 10.4% 9.6% 54.1% 6.0%

Скриншоты

[Профиль] [ЛС]
Кто просматривает тему:

Форум Тема Автор Размер
Nat Geo Wild Nat Geo Wild: Дикие Гавайи / Wild Hawaii (Wildes Hawaii) [серии 1-2 из 2] (Карен Гринфилд / Karen Greenfield) [2013 г., Документальный, природа, флора, фауна, BDRip 720p] skorpionN 3.91 GB
Nat Geo Wild Nat Geo Wild: Дикие животные Японии / Japan's Wild Year (Lorne Townend) [2014 г., Документальный, флора, фауна, HDTVRip-AVC 720p] skorpionN 1.59 GB
Nat Geo Wild Nat Geo Wild: Дикие земли Европы / Europe's Great Wilderness [серии 1-3 из 3] (Allison Bean) [2015 г., Документальный, природа, флора, фауна, HDTVRip-AVC 720p] skorpionN 4.78 GB
Nat Geo Wild Nat Geo Wild: Дикие острова: Невиданные острова / Unseen Islands [сезон 1 серии 1-2 из 2] (Stewart McPherson) [2015 г., Документальный, научно-познавательный, HDTVRip 720p] skorpionN 3.19 GB
Документальные HD Дикие белые львицы / White Lions - Born Wild (Джо Кеннеди / Joe Kennedy) [2012, Документальный, животные, HDTVRip 720p] TorrentFilm 4.04 GB
Документальные HD Дикие Гавайи. Тайны морских глубин / Wild Hawaii. Secrets of the Deep (Карен Гринфилд) [2013, Документальный, BDRip 720p] TorrentFilm 1.91 GB
Фильмы (HD Rips | 720p, 1080p) Дикие истории / Relatos salvajes (2014) WEB-DL 1080p sergej644 3.78 GB
Фильмы 2014 года Дикие истории / Relatos salvajes (Дамиан Сифрон) [2014, триллер, драма, комедия] HDRip | iTunes BOSS 1.37 GB
Показать сообщения:    

Текущее время: Сегодня 02:42

Часовой пояс: GMT



Вы не можете начинать темы
Вы не можете отвечать на сообщения
Вы не можете редактировать свои сообщения
Вы не можете удалять свои сообщения
Вы не можете голосовать в опросах
Вы не можете прикреплять файлы к сообщениям
Вы не можете скачивать файлы