Дикие истории / Relatos salvajes (2014) WEB-DL 1080p

 
Автор Сообщение

sergej644 ®

Пол:

Стаж: 4 года 11 месяцев

Сообщений: 6045

Откуда: Soviet Union



Награды: Нет

Торрент-статистика

Создавать темы 26-Фев-2015 21:10

[Цитировать]

Оригинальное название: Relatos salvajes
Название: Дикие истории
Жанр: Триллер, драма, комедия
Режиссёр: Дамиан Сифрон
Год: 2014
В ролях: Лилиана Экерман, Луис Мануэль Альтамирано Гарсиа, Алехандро Анджелини, Дамиан Бенитес, Кристина Бланко, Густаво Бонфигли, Сесар Бордон, Пабло Брикер, Мария Лаура Каккамо, Камила София Касас

… Гэбриела Пастернака - обижали многие, с кем сводила его жизнь - девушка, учитель музыки, профессор в консерватории, дантист. И вот все они, на свою беду, оказались вместе с ним в одном самолете... Ночью в придорожной закусочной официантка узнает в посетителе ростовщика, который много лет назад довел до самоубийства ее отца. А у поварихи, в прошлом отсидевшей срок, для мести такому гаду сразу нашлось средство - крысиный яд... Городской красавчик ехал на своей мощной Audi по пустынной дороге и решил обогнать старый Peugeot, но сидевший за рулем провинциальный упырь решил не уступать. И вот уже кровавый итог бессмысленного соперничества не за горами...
Страна: Аргентина, Испания
Продолжительность: 02:01:58
Перевод: Дублированный (Официальный)
Контейнер: MKV
Кодек: MPEG-4 (AVC)
Качество: WEB-DL
Видео: 3835 Kb/s, 1912x800
Звук: Russian: AC3, 128 Kb/s (2 ch) / Spanish: AC3, 384 Kb/s (6 ch)
Субтитры: Отсутствуют
-

Mediainfo:

Общее
Уникальный идентификатор : 237328317271932759769319106657625979590 (0xB28BC57329D8A35C8B880C6A59063AC6)
Полное имя : Дикие истории Relatos salvajes (2014) WEB-DL 1080p Чистый звукD1kie.istor1i.2014.D.WEB-DL.1080p.mkv
Формат : Matroska
Версия формата : Version 4 / Version 2
Размер файла : 3,78 Гбайт
Продолжительность : 2 ч. 1 м.
Общий поток : 4433 Кбит/сек
Дата кодирования : UTC 2015-02-18 12:05:33
Программа кодирования : mkvmerge v7.2.0 ('On Every Street') 64bit built on Sep 13 2014 15:52:10
Библиотека кодирования : libebml v1.3.0 + libmatroska v1.4.1
_STATISTICS_WRITING_APP : mkvmerge v7.2.0 ('On Every Street') 64bit built on Sep 13 2014 15:52:10
_STATISTICS_WRITING_DATE_UTC : 2015-02-18 12:05:33
_STATISTICS_TAGS : BPS DURATION NUMBER_OF_FRAMES NUMBER_OF_BYTES
DURATION : 02:01:57.368000000
NUMBER_OF_FRAMES : 280118
NUMBER_OF_BYTES : 117077891
Attachment : Yes
Видео
Идентификатор : 1
Формат : AVC
Формат/Информация : Advanced Video Codec
Профиль формата : High@L4.0
Параметр CABAC формата : Да
Параметр ReFrames формата : 5 кадров
Идентификатор кодека : V_MPEG4/ISO/AVC
Продолжительность : 2 ч. 1 м.
Битрейт : 3832 Кбит/сек
Ширина : 1912 пикселей
Высота : 800 пикселей
Соотношение сторон : 2,40:1
Режим частоты кадров : Постоянный
Частота кадров : 23,976 кадра/сек
Цветовое пространство : YUV
Субдискретизация насыщенности : 4:2:0
Битовая глубина : 8 бит
Тип развёртки : Прогрессивная
Бит/(Пиксели*Кадры) : 0.105
Размер потока : 3,27 Гбайт (86%)
Default : Да
Forced : Нет
Основные цвета : BT.709
Характеристики трансфера : BT.709
Коэффициенты матрицы : BT.709
Аудио #1
Идентификатор : 2
Формат : MPEG Audio
Версия формата : Version 1
Профиль формата : Layer 3
Идентификатор кодека : A_MPEG/L3
Идентификатор кодека/Подсказка : MP3
Продолжительность : 2 ч. 1 м.
Вид битрейта : Постоянный
Битрейт : 128 Кбит/сек
Каналы : 2 канала
Частота : 44,1 КГц
Метод сжатия : С потерями
Размер потока : 112 Мбайт (3%)
Язык : Russian
Default : Да
Forced : Нет
Аудио #2
Идентификатор : 3
Формат : AC-3
Формат/Информация : Audio Coding 3
Расширение режима : CM (complete main)
Параметр Endianness формата : Big
Идентификатор кодека : A_AC3
Продолжительность : 2 ч. 1 м.
Вид битрейта : Постоянный
Битрейт : 384 Кбит/сек
Каналы : 6 каналов
Расположение каналов : Front: L C R, Side: L R, LFE
Частота : 48,0 КГц
Битовая глубина : 16 бит
Метод сжатия : С потерями
Размер потока : 335 Мбайт (9%)
Язык : Spanish
Default : Нет
Forced : Нет
Меню
00:00:00.000 : en:1
00:10:28.000 : en:2
00:20:35.000 : en:3
00:38:55.000 : en:4
00:48:24.000 : en:5
01:01:48.000 : en:6
01:10:09.000 : en:7
01:25:10.000 : en:8
01:40:40.000 : en:9
01:55:01.000 : en:10
- --
[Профиль] [ЛС]
Кто просматривает тему:

Форум Тема Автор Размер
Nat Geo Wild Nat Geo Wild: Дикие Гавайи / Wild Hawaii (Wildes Hawaii) [серии 1-2 из 2] (Карен Гринфилд / Karen Greenfield) [2013 г., Документальный, природа, флора, фауна, BDRip 720p] skorpionN 3.91 GB
Nat Geo Wild Nat Geo Wild: Дикие животные Японии / Japan's Wild Year (Lorne Townend) [2014 г., Документальный, флора, фауна, HDTVRip-AVC 720p] skorpionN 1.59 GB
Nat Geo Wild Nat Geo Wild: Дикие земли Европы / Europe's Great Wilderness [серии 1-3 из 3] (Allison Bean) [2015 г., Документальный, природа, флора, фауна, HDTVRip-AVC 720p] skorpionN 4.78 GB
Nat Geo Wild Nat Geo Wild: Дикие острова: Невиданные острова / Unseen Islands [сезон 1 серии 1-2 из 2] (Stewart McPherson) [2015 г., Документальный, научно-познавательный, HDTVRip 720p] skorpionN 3.19 GB
Документальные HD Дикие белые львицы / White Lions - Born Wild (Джо Кеннеди / Joe Kennedy) [2012, Документальный, животные, HDTVRip 720p] TorrentFilm 4.04 GB
Документальные HD Дикие Гавайи. Тайны морских глубин / Wild Hawaii. Secrets of the Deep (Карен Гринфилд) [2013, Документальный, BDRip 720p] TorrentFilm 1.91 GB
Фильмы (HD Rips | 720p, 1080p) Дикие истории / Relatos salvajes (2014) BDRip 1080p | iTunes sergej644 5.92 GB
Фильмы 2014 года Дикие истории / Relatos salvajes (Дамиан Сифрон) [2014, триллер, драма, комедия] HDRip | iTunes BOSS 1.37 GB
Показать сообщения:    

Текущее время: Сегодня 11:56

Часовой пояс: GMT



Вы не можете начинать темы
Вы не можете отвечать на сообщения
Вы не можете редактировать свои сообщения
Вы не можете удалять свои сообщения
Вы не можете голосовать в опросах
Вы не можете прикреплять файлы к сообщениям
Вы не можете скачивать файлы