Дикие Гавайи / Wild Hawaii [серии 1-2 из 2] (Карен Гринфилд / Karen Greenfield) [2013, Документальный, флора, фауна, HDTVRip, HDRip] Dub

 
Автор Сообщение

Один 777 ®

Пол:

Стаж: 2 года 8 месяцев

Сообщений: 503

Откуда: Луцк



Награды: 7 (Подробнее)

Mega Seeder 1 (Количество: 1) Mega Seeder 3 (Количество: 1) Mega Seeder 4 (Количество: 1)
Торрент-статистика

Создавать темы 23-Янв-2017 09:01

[Цитировать]

Дикие Гавайи / Wild Hawaii
Серии 1-2 из 2
Год выпуска: 2013
Страна: США / Pangolin Pictures
Жанр: Документальный, флора, фауна
Продолжительность: 2 x ~ 00:44:00
Перевод: Профессиональный (дублированный)
Субтитры: нет
Режиссер: Карен Гринфилд / Karen Greenfield
Описание: Гавайские острова находятся на разломе земной коры, что приводит к удивительным проявлениям вулканической активности. Здесь расположено немало крупных действующих вулканов, чьи извержения приводят к многочисленным разрушениям. Во время извержений лава широкими потоками течёт по плато и падает с крутых берегов прямо в океан, где застывает, образуя причудливые чёрные скалы. Кроме того, извержения зачастую сопровождаются разрушительными землетрясениями.
Гавайи - рай на земле, и не только на суше. Настоящий эдемский сад кроется под волнами. Там, где заканчивается берег, начинается повествование о диких Гавайах. Одна из тайн этих островов надежно скрыта под водой. Может показаться, что этот рай предназначен для ограниченного числа избранных, однако эти воды открыты для самых разнообразных существ. Гавайи притягивают жизнь на свои мелководья, на отмели и в глубины. Чарующая красота этого рая земного завораживает своим разнообразием.
Сэмпл: http://sendfile.su/1301602

качество: HDTVRip, HDRip
формат: AVI
Видео кодек: XviD
Аудио кодек: AC3
Видео 1: 720x400 (1.80:1), 25 fps, XviD build 73 ~2022 kbps avg, 0.28 bit/pixel (HDTVRip)
Видео 2: 720x400 (1.80:1), 25 fps, XviD build 73 ~2018 kbps avg, 0.28 bit/pixel (HDRip)
Аудио: 48 kHz, AC3 Dolby Digital, 2/0 (L,R) ch, ~192 kbps

Список серий

01. Огненный край / Land of Fire
02. Тайны морских глубин / Secrets of the Deep

MediaInfo

Общее
Полное имя : F:\Dikie.Gavaji.2013.HDRip.[Один 777]\01.Dikie.Gavaji.2013.HDRip.[Один 777].avi
Формат : AVI
Формат/Информация : Audio Video Interleave
Размер файла : 700 Мбайт
Продолжительность : 43 м.
Общий поток : 2224 Кбит/сек
Программа кодирования : VirtualDubMod 1.5.10.3 | www.virtualdub-fr.org || (build 2550/release)
Библиотека кодирования : VirtualDubMod build 2550/release
Видео
Идентификатор : 0
Формат : MPEG-4 Visual
Профиль формата : Advanced Simple@L5
Параметр BVOP формата : 1
Параметр QPel формата : Нет
Параметр GMC формата : Без точки перехода
Параметр матрицы формата : Default (H.263)
Идентификатор кодека : XVID
Идентификатор кодека/Подсказка : XviD
Продолжительность : 43 м.
Битрейт : 2022 Кбит/сек
Ширина : 720 пикселей
Высота : 400 пикселей
Соотношение сторон : 16:9
Частота кадров : 25,000 кадров/сек
Цветовое пространство : YUV
Субдискретизация насыщенности : 4:2:0
Битовая глубина : 8 бит
Тип развёртки : Прогрессивная
Метод сжатия : С потерями
Бит/(Пиксели*Кадры) : 0.281
Размер потока : 636 Мбайт (91%)
Библиотека кодирования : XviD 73
Аудио
Идентификатор : 1
Формат : AC-3
Формат/Информация : Audio Coding 3
Расширение режима : CM (complete main)
Параметр Endianness формата : Big
Идентификатор кодека : 2000
Продолжительность : 43 м.
Вид битрейта : Постоянный
Битрейт : 192 Кбит/сек
Каналы : 2 канала
Расположение каналов : Front: L R
Частота : 48,0 КГц
Частота кадров : 31,250 кадров/сек (1536 spf)
Метод сжатия : С потерями
Размер потока : 60,4 Мбайт (9%)
Выравнивание : Разделение по промежуткам
Продолжительность промежутка : 40 мс. (1,00 видеокадр)
Время предзагрузки промежутка : 500 мс.
Общее
Полное имя : F:\Dikie.Gavaji.2013.HDRip.[Один 777]\02.Dikie.Gavaji.2013.HDRip.[Один 777].avi
Формат : AVI
Формат/Информация : Audio Video Interleave
Размер файла : 699 Мбайт
Продолжительность : 44 м.
Общий поток : 2220 Кбит/сек
Программа кодирования : VirtualDubMod 1.5.10.3 | www.virtualdub-fr.org || (build 2550/release)
Библиотека кодирования : VirtualDubMod build 2550/release
Видео
Идентификатор : 0
Формат : MPEG-4 Visual
Профиль формата : Advanced Simple@L5
Параметр BVOP формата : 1
Параметр QPel формата : Нет
Параметр GMC формата : Без точки перехода
Параметр матрицы формата : Default (H.263)
Идентификатор кодека : XVID
Идентификатор кодека/Подсказка : XviD
Продолжительность : 44 м.
Битрейт : 2018 Кбит/сек
Ширина : 720 пикселей
Высота : 400 пикселей
Соотношение сторон : 16:9
Частота кадров : 25,000 кадров/сек
Цветовое пространство : YUV
Субдискретизация насыщенности : 4:2:0
Битовая глубина : 8 бит
Тип развёртки : Прогрессивная
Метод сжатия : С потерями
Бит/(Пиксели*Кадры) : 0.280
Размер потока : 635 Мбайт (91%)
Библиотека кодирования : XviD 73
Аудио
Идентификатор : 1
Формат : AC-3
Формат/Информация : Audio Coding 3
Расширение режима : CM (complete main)
Параметр Endianness формата : Big
Идентификатор кодека : 2000
Продолжительность : 43 м.
Вид битрейта : Постоянный
Битрейт : 192 Кбит/сек
Каналы : 2 канала
Расположение каналов : Front: L R
Частота : 48,0 КГц
Частота кадров : 31,250 кадров/сек (1536 spf)
Метод сжатия : С потерями
Размер потока : 60,3 Мбайт (9%)
Выравнивание : Разделение по промежуткам
Продолжительность промежутка : 40 мс. (1,00 видеокадр)
Время предзагрузки промежутка : 500 мс.

Скриншоты

[Профиль] [ЛС]
Кто просматривает тему:

Форум Тема Автор Размер
Nat Geo Wild Nat Geo Wild: Дикие болота / Wild Swamplands [серии 1-2 из 2] (Даниэла Палверер) [2013 г., Документальный, природа, флора, фауна, HDTVRip-AVC 720p] skorpionN 3 GB
Nat Geo Wild Nat Geo Wild: Дикие Гавайи / Wild Hawaii (Wildes Hawaii) [серии 1-2 из 2] (Карен Гринфилд / Karen Greenfield) [2013 г., Документальный, природа, флора, фауна, BDRip 720p] skorpionN 3.91 GB
Nat Geo Wild Nat Geo Wild: Дикие животные Японии / Japan's Wild Year (Lorne Townend) [2014 г., Документальный, флора, фауна, HDTVRip-AVC 720p] skorpionN 1.59 GB
Nat Geo Wild Nat Geo Wild: Дикие земли Европы / Europe's Great Wilderness [серии 1-3 из 3] (Allison Bean) [2015 г., Документальный, природа, флора, фауна, HDTVRip-AVC 720p] skorpionN 4.78 GB
Nat Geo Wild Nat Geo Wild: Дикие острова Европы / Europe's Wild Islands (Erich Proell) [2016 г., Документальный, научно-познавательный, флора и фауна, HDTVRip-AVC 1080i] skorpionN 2.33 GB
Nat Geo Wild Nat Geo Wild: Дикие острова: Невиданные острова / Unseen Islands [сезон 1 серии 1-2 из 2] (Stewart McPherson) [2015 г., Документальный, научно-познавательный, HDTVRip 720p] skorpionN 3.19 GB
Документальные HD Дикие белые львицы / White Lions - Born Wild (Джо Кеннеди / Joe Kennedy) [2012, Документальный, животные, HDTVRip 720p] TorrentFilm 4.04 GB
Документальные HD Дикие Гавайи. Тайны морских глубин / Wild Hawaii. Secrets of the Deep (Карен Гринфилд) [2013, Документальный, BDRip 720p] TorrentFilm 1.91 GB
Показать сообщения:    

Текущее время: Сегодня 13:40

Часовой пояс: GMT



Вы не можете начинать темы
Вы не можете отвечать на сообщения
Вы не можете редактировать свои сообщения
Вы не можете удалять свои сообщения
Вы не можете голосовать в опросах
Вы не можете прикреплять файлы к сообщениям
Вы не можете скачивать файлы