Дикие белые львицы / White Lions - Born Wild (Джо Кеннеди / Joe Kennedy) [2012, Документальный, животные, HDTVRip 720p]

 
Автор Сообщение

TorrentFilm ®

Пол:

Стаж: 1 год 11 месяцев

Сообщений: 7741



Награды: Нет

Торрент-статистика

Создавать темы 24-Апр-2015 00:05

[Цитировать]

Дикие белые львицы / White Lions - Born Wild
Год выпуска: 2012
Страна: Австрия
Студия: Terra Mater Factual Studios
Жанр: Документальный, животные
Продолжительность: 2x ~00:53:00
Перевод: Студийный (одноголосый закадровый)
Доп. инфо о переводе: СД Амедиа, перевод Алиса Хазина, текст читает Юрий Большаков
Режиссер: Джо Кеннеди / Joe Kennedy
Описание: История двух новорожденных львиц невероятно редкой породы - дикий белый лев. В мае 2009 года в Южно-Африканском национальном парке Крюгер родились две белоснежные сестренки-львицы невероятно редкой породы - дикий белый лев. Как и другим львятам, им было нелегко выживать на лоне дикой природы, а тот факт, что они слишком заметны, делал их еще более уязвимыми. Выживут ли наши новорожденные в жестких условиях африканской саванны, когда все обстоятельства против них: ведь по статистике 80% новорожденных львят не доживают до взрослого состояния. Вы станете свидетелями взросления львиц: того, как они учатся охотиться и избегать опасности в своих белоснежных одеяниях, и о том, какого это быть белым львом в Африке.
Сэмпл: http://multi-up.com/1044888
Тип релиза: HDTVRip 720p
Контейнер: MKV
Видео: MPEG-4 AVC, 5200 Кбит/с, 1280x720
Аудио: Русский, AC3, 2 ch, 128 Кбит/с
Аудио 2: Английский,MP2, 2 ch, 128 Кбит/с

MediaInfo

GeneralUnique ID : 232175040081041985986270930825177542238 (0xAEAB49449BE00FE8BC51CCB2E7312E5E)Complete name : M:\Торренты\Документальные\Дикие белые львицы\2_борьба за выживание_720p.mkvFormat : MatroskaFormat version : Version 4 / Version 2File size : 2.02 GiBDuration : 53mn 0sOverall bit rate : 5 457 KbpsEncoded date : UTC 2015-04-19 15:29:26Writing application : mkvmerge v6.6.0 ('The Edge Of The In Between') built on Dec 1 2013 17:55:00Writing library : libebml v1.3.0 + libmatroska v1.4.1
VideoID : 1Format : AVCFormat/Info : Advanced Video CodecFormat profile : High@L4.1Format settings, CABAC : YesFormat settings, ReFrames : 9 framesCodec ID : V_MPEG4/ISO/AVCDuration : 53mn 0sBit rate : 5 200 KbpsWidth : 1 280 pixelsHeight : 720 pixelsDisplay aspect ratio : 16:9Frame rate mode : ConstantFrame rate : 25.000 fpsColor space : YUVChroma subsampling : 4:2:0Bit depth : 8 bitsScan type : ProgressiveBits/(Pixel*Frame) : 0.226Stream size : 1.89 GiB (93%)Writing library : x264 core 146 r2538 121396cEncoding settings : cabac=1 / ref=9 / deblock=1:-3:-3 / analyse=0x3:0x133 / me=umh / subme=9 / psy=1 / psy_rd=1.00:0.10 / mixed_ref=1 / me_range=32 / chroma_me=1 / trellis=2 / 8x8dct=1 / cqm=0 / deadzone=21,11 / fast_pskip=1 / chroma_qp_offset=-3 / threads=6 / lookahead_threads=1 / sliced_threads=0 / nr=0 / decimate=0 / interlaced=0 / bluray_compat=0 / constrained_intra=0 / bframes=14 / b_pyramid=2 / b_adapt=2 / b_bias=0 / direct=3 / weightb=1 / open_gop=0 / weightp=2 / keyint=250 / keyint_min=23 / scenecut=40 / intra_refresh=0 / rc=2pass / mbtree=0 / bitrate=5200 / ratetol=1.0 / qcomp=0.60 / qpmin=0 / qpmax=69 / qpstep=4 / cplxblur=20.0 / qblur=0.5 / ip_ratio=1.40 / pb_ratio=1.30 / aq=1:1.00Language : EnglishDefault : YesForced : No
Audio #1ID : 2Format : AC-3Format/Info : Audio Coding 3Mode extension : CM (complete main)Format settings, Endianness : BigCodec ID : A_AC3Duration : 53mn 0sBit rate mode : ConstantBit rate : 128 KbpsChannel(s) : 2 channelsChannel positions : Front: L RSampling rate : 48.0 KHzBit depth : 16 bitsCompression mode : LossyStream size : 48.5 MiB (2%)Language : RussianDefault : YesForced : No
Audio #2ID : 3Format : MPEG AudioFormat version : Version 1Format profile : Layer 2Codec ID : A_MPEG/L2Codec ID/Hint : MP2Duration : 53mn 0sBit rate mode : ConstantBit rate : 128 KbpsChannel(s) : 2 channelsSampling rate : 48.0 KHzCompression mode : LossyStream size : 48.5 MiB (2%)Language : EnglishDefault : NoForced : No

Скриншоты

[Профиль] [ЛС]
Кто просматривает тему:

Форум Тема Автор Размер
Nat Geo Wild Nat Geo Wild: Дикие Гавайи / Wild Hawaii (Wildes Hawaii) [серии 1-2 из 2] (Карен Гринфилд / Karen Greenfield) [2013 г., Документальный, природа, флора, фауна, BDRip 720p] skorpionN 3.91 GB
Nat Geo Wild Nat Geo Wild: Дикие животные Японии / Japan's Wild Year (Lorne Townend) [2014 г., Документальный, флора, фауна, HDTVRip-AVC 720p] skorpionN 1.59 GB
Nat Geo Wild Nat Geo Wild: Дикие земли Европы / Europe's Great Wilderness [серии 1-3 из 3] (Allison Bean) [2015 г., Документальный, природа, флора, фауна, HDTVRip-AVC 720p] skorpionN 4.78 GB
Nat Geo Wild Nat Geo Wild: Дикие острова: Невиданные острова / Unseen Islands [сезон 1 серии 1-2 из 2] (Stewart McPherson) [2015 г., Документальный, научно-познавательный, HDTVRip 720p] skorpionN 3.19 GB
Документальные HD Дикие Гавайи. Тайны морских глубин / Wild Hawaii. Secrets of the Deep (Карен Гринфилд) [2013, Документальный, BDRip 720p] TorrentFilm 1.91 GB
Фильмы (HD Rips | 720p, 1080p) Дикие истории / Relatos salvajes (2014) BDRip 1080p | iTunes sergej644 5.92 GB
Фильмы (HD Rips | 720p, 1080p) Дикие истории / Relatos salvajes (2014) WEB-DL 1080p sergej644 3.78 GB
Фильмы 2014 года Дикие истории / Relatos salvajes (Дамиан Сифрон) [2014, триллер, драма, комедия] HDRip | iTunes BOSS 1.37 GB
Показать сообщения:    

Текущее время: Сегодня 20:03

Часовой пояс: GMT



Вы не можете начинать темы
Вы не можете отвечать на сообщения
Вы не можете редактировать свои сообщения
Вы не можете удалять свои сообщения
Вы не можете голосовать в опросах
Вы не можете прикреплять файлы к сообщениям
Вы не можете скачивать файлы