Дикая Шри-Ланка (3 серии из 3) / Wild Sri Lanka (Джо Лонкрейн / Joe Loncraine) [2014, Документальный, HDTVRip 720p]

 
Автор Сообщение

TorrentFilm ®

Пол:

Стаж: 1 год 11 месяцев

Сообщений: 7741



Награды: Нет

Торрент-статистика

Создавать темы 18-Май-2015 00:04

[Цитировать]

Дикая Шри Ланка (3 серии из 3)/ Wild Sri Lanka
Год выпуска: 2014
Страна: Германия, Великобритания
Студия: Terra Mater Factual Studios, Mike Birkhead Associates Ltd. Production
Жанр: Документальный
Продолжительность: 3x ~ 00:44:00
Перевод: Профессиональный (дублированный)
Доп. инфо о переводе: Студия "Велес" / Олег Белов
Режиссер: Джо Лонкрейн / Joe Loncraine
Описание: Столетиями Шри Ланка и её тайные богатства влекли к себе путешественников со всего мира. Индийских, европейских, арабских путешественников, чьи умы были взбудоражены рассказами о редких специях, диковинных животных, древних цивилизациях и невиданных сокровищах, непреодолимо влекло к этому сказочному острову. Здесь земля изобилия, населенная сонмами божеств, стадами великанов и множеством невиданных существ. Но они даже не подозревали, что истинные сокровища Шри Ланки можно найти ещё до того, как ступишь на эту благодатную землю.
Тип релиза: HDTVRip 720p
Контейнер: MKV
Сэмпл: http://multi-up.com/1048884
Видео: H.264, 1280х720 (16:9), 5100 Kbps, 25 fps
Аудио: AC3, 192 Кбит/с, 48 kHz, 2 ch

Список серий

1. Побережье гигантов / Coast of Giants Утомленный океанский путник возвращается к берегам райского острова. На протяжение тысячелетий океанические течения приносили странствующих великанов к этим волшебным берегам. У острова, где левиафаны морских глубин скитаются возле суши, одно из величайших водных представлений на Земле. Чем же этот остров притягивает такое количество океанических обитателей?2. Край озер / Land of LakesВ скалистом сердце этой страны обитают создания, которых не встретишь ни где в мире. Они прячутся в укрытых облаками деревьях. Искатели приключений приезжали сюда за специями и "зеленым золотом", но за долго до того, как чайные кусты появились на этих холмах здесь процветали древние цивилизации. Первые сингальцы обуздали силы природы и превратили дикую местность в страну храмов и озер. Они создали огромный резервуар воды для поддержания жизни в засушливые месяцы.3.Облачный лес / Forest of Clouds Леса Шри Ланки надежно хранят свои секреты, но в этом живописном лабиринте идет великая битва за жизнь. В лесной подстилке охотятся богато разукрашенные хищники, а среди ветвей зарождаются новые поколения. Каждый уровень леса это отдельное царство со своими уникальными видами. В этих джунглях, среди деревьев, нашлось место и человеку. На этом острове есть места, где конкуренция за жизнь особенно жестока, это облачные леса Шри Ланки.

MediaInfo

GeneralUnique ID : 179450900914877370540244999638266093179 (0x8700FC823708F010B59983A230231E7B)Complete name : D:\Видео\Флора и фауна\Wild Sri Lanka\01-Coast of Giants.mkvFormat : MatroskaFormat version : Version 2File size : 1.63 GiBDuration : 43mn 59sOverall bit rate : 5 292 KbpsEncoded date : UTC 2015-05-10 14:54:01Writing application : mkvmerge v7.8.0 ('River Man') 32bit built on Apr 3 2015 12:11:22Writing library : libebml v1.3.1 + libmatroska v1.4.2
VideoID : 1Format : AVCFormat/Info : Advanced Video CodecFormat profile : High@L4.1Format settings, CABAC : YesFormat settings, ReFrames : 8 framesCodec ID : V_MPEG4/ISO/AVCDuration : 43mn 59sBit rate : 5 100 KbpsWidth : 1 280 pixelsHeight : 720 pixelsDisplay aspect ratio : 16:9Frame rate mode : ConstantFrame rate : 25.000 fpsColor space : YUVChroma subsampling : 4:2:0Bit depth : 8 bitsScan type : ProgressiveBits/(Pixel*Frame) : 0.221Stream size : 1.53 GiB (94%)Writing library : x264 core 146 r2538 121396cEncoding settings : cabac=1 / ref=8 / deblock=1:-3:-3 / analyse=0x3:0x113 / me=umh / subme=9 / psy=1 / psy_rd=1.05:0.15 / mixed_ref=1 / me_range=32 / chroma_me=1 / trellis=2 / 8x8dct=1 / cqm=0 / deadzone=21,11 / fast_pskip=1 / chroma_qp_offset=-3 / threads=6 / lookahead_threads=1 / sliced_threads=0 / nr=0 / decimate=1 / interlaced=0 / bluray_compat=0 / constrained_intra=0 / bframes=7 / b_pyramid=2 / b_adapt=2 / b_bias=0 / direct=3 / weightb=1 / open_gop=0 / weightp=2 / keyint=240 / keyint_min=24 / scenecut=40 / intra_refresh=0 / rc_lookahead=60 / rc=2pass / mbtree=1 / bitrate=5100 / ratetol=1.0 / qcomp=0.60 / qpmin=0 / qpmax=69 / qpstep=4 / cplxblur=20.0 / qblur=0.5 / vbv_maxrate=14000 / vbv_bufsize=14000 / nal_hrd=none / filler=0 / ip_ratio=1.40 / aq=1:1.00Default : YesForced : No
AudioID : 2Format : AC-3Format/Info : Audio Coding 3Mode extension : CM (complete main)Format settings, Endianness : BigCodec ID : A_AC3Duration : 43mn 59sBit rate mode : ConstantBit rate : 192 KbpsChannel(s) : 2 channelsChannel positions : Front: L RSampling rate : 48.0 KHzBit depth : 16 bitsCompression mode : LossyStream size : 60.4 MiB (4%)Default : YesForced : No

Скриншоты

[Профиль] [ЛС]

skorpionN

Пол:

Стаж: 1 год 8 месяцев

Сообщений: 578



Награды: 4 (Подробнее)

Top Releaser 2 (Количество: 1) Mega Seeder 2 (Количество: 1) Mega Seeder 1 (Количество: 1)
Торрент-статистика

Создавать темы 18-Май-2015 05:58 (спустя 5 часов)

[Цитировать]

Разница невелика Nat Geo Wild: Дикая Шри-Ланка / Wild Sri Lanka (Mike Birkhead, Joe Loncraine) [серии 1-3 из 3 ] [2014 г., Документальный, природа, флора, фауна, HDTVRip 720p]
[Профиль] [ЛС]
Кто просматривает тему:

Форум Тема Автор Размер
Chanson (Шансон) VA - Дикая Мята - 2015, MP3, VBR 192-320 kbps Magnat 1.06 GB
BBC BBC: Дикая Бразилия / Wild Brazil [серии 1-3 из 3] (Джо Стивенс / Joe Stevens, Адам Уайт /Adam White) [2014 г., Документальный, природа, флора, фауна, HDTVRip 720p] skorpionN 5.78 GB
Nat Geo Wild Nat Geo Wild: Дикая Антарктика / Wild Antarctica (Jessica Connell) [2015 г., Документальный, научно-познавательный, HDTVRip-AVC 720p] skorpionN 1.59 GB
Nat Geo Wild Nat Geo Wild: Дикая Венеция / Wild Venice (Klaus T. Steindl) [2014 г., Документальный, природа, флора, фауна, HDTVRip 720p] skorpionN 1.59 GB
Nat Geo Wild Nat Geo Wild: Дикая Иберия / Wild Iberia [сезон 1 серии 1-4 из 4] (Альваро Мендоза / Alvaro Mendoza) [2014 г., Документальный, природа, флора, фауна, HDTVRip 720p] skorpionN 6.33 GB
Nat Geo Wild Nat Geo Wild: Дикая Колумбия / Wild Colombia [серии 1-3 из 3] (Andrew Moorwood) [2014 г., Документальный, природа, флора, фауна, HDTVRip 720p] skorpionN 4.78 GB
Nat Geo Wild Nat Geo Wild: Дикая Нижняя Калифорния / Wild Baja California (Michael Watchulonis) [2014 г., Документальный, флора, фауна, HDTVRip 720p] skorpionN 1.34 GB
Nat Geo Wild Nat Geo Wild: Дикая природа Индонезии / Wild Indonesia [ серии 1-3 из 3] (Charlie Lickock) [2014 г., Документальный, природа, флора, фауна, HDTVRip 720p] skorpionN 4.55 GB
Показать сообщения:    

Текущее время: Сегодня 07:02

Часовой пояс: GMT



Вы не можете начинать темы
Вы не можете отвечать на сообщения
Вы не можете редактировать свои сообщения
Вы не можете удалять свои сообщения
Вы не можете голосовать в опросах
Вы не можете прикреплять файлы к сообщениям
Вы не можете скачивать файлы