Дикая Флорида / Wildes Florida (Вирджиния Сомма / Virginia Somma) [2013, Документальный, научно-познавательный, природа, флора, фауна, BDRemux 1080i] National Geographic

 
Автор Сообщение

TorrentFilm ®

Пол:

Стаж: 2 года

Сообщений: 7741



Награды: Нет

Торрент-статистика

Создавать темы 12-Фев-2015 00:16

[Цитировать]

Дикая Флорида / Wildes Florida- Год выпуска: 2013
Страна: США
Студия: Produced By 2C Media, INC. For National Geographic Channels
Жанр: Документальный
Продолжительность: 2 x ~ 00:43:59
Перевод: Дублированный
Русские субтитры: нет
Режиссер: Вирджиния Сомма / Virginia Somma-Описание: За пределами парка "Магическое королевство" Диснейленда находится дикая часть Флориды, где захватывающая красота ландшафта объединяется с живой природой, и здесь, между лабиринтами кипарисовых болот, людными пляжами и коралловыми островами развязываются безжалостные драмы. Две истории проведут нас в эту скрытую дикую местность, где нашему взгляду откроются поразительные войска грозных хищников, опасные захватчики и спасающиеся от них ловкачи — в их попытке жить и благоденствовать в этом великолепном, но иногда жестоком земном раю. Трое молодых аллигаторов пытаются пережить свой первый год в болотистой местности, где правят их старые и огромные собратья. Чтобы заработать звание короля трясины, для начала им необходимо избежать целой толпы убийц: ядовитых змей, ненасытных хищных рыб и даже представителей своего же вида. Ещё один дикий край раскинулся посреди беспокойных берегов и сильного течения Гольфстрима. С помощью великолепной киносъёмки передача "Дикая Флорида" за два часа познакомит вас с удивительными и харизматичными героями, которые покажут вам, что такое "дикая жизнь" солнечного штата Флориды.-Доп. информация:
Сохранены оригинальные чаптеры как на Blu-ray
Русскую озвучку взял из HDTVRipа и адаптировал для данной версии фильма.-Сэмпл1 Сэмпл2
Тип релиза: BDRemux 1080i
Контейнер: MKV
Видео: H.264/AVC, 1920x1080, 16:9, ~30Mbps, 25.000 fps
Аудио 1: Russian, AC-3, 2.0, 48 kHz, 16 bit, 192 kbps
Аудио 2: German, DTS MA, 7.1 / 5.1 channels, 48 kHz, 16 bit, 1576 Kbps / 1510 Kbps
Аудио 2: English, DTS MA, 7.1 / 5.1 channels, 48 kHz, 16 bit, 1576 Kbps / 1510 Kbps

Содержание

Episode 1 Край аллигаторов / Land der Alligatoren. / Gator Country
Episode 2 Берег аллигаторов / Küste der Krokodile. / Croc Coast

Отчет MediaInfoEpisode1

Общее
Уникальный идентификатор : 255076465191971369756768681376721042969 (0xBFE5F0B3B5EBEB69B00B818CEFDA7E19)
Полное имя : F:\Episode 1. Land der Alligatoren. Gator Country BDremux.mkv
Формат : Matroska
Версия формата : Version 4 / Version 2
Размер файла : 9,55 Гбайт
Продолжительность : 43 м.
Режим общего битрейта : Переменный
Общий поток : 31,1 Мбит/сек
Дата кодирования : UTC 2015-02-11 16:35:51
Программа кодирования : mkvmerge v7.4.0 ('Circles') 32bit built on Dec 12 2014 12:10:09
Библиотека кодирования : libebml v1.3.0 + libmatroska v1.4.1
Видео
Идентификатор : 1
Формат : AVC
Формат/Информация : Advanced Video Codec
Профиль формата : High@L4.1
Параметр CABAC формата : Да
Параметр ReFrames формата : 4 кадра
Идентификатор кодека : V_MPEG4/ISO/AVC
Продолжительность : 43 м.
Вид битрейта : Переменный
Битрейт : 27,1 Мбит/сек
Максимальный битрейт : 35,0 Мбит/сек
Ширина : 1920 пикселей
Высота : 1080 пикселей
Соотношение сторон : 16:9
Частота кадров : 25,000 кадров/сек
Цветовое пространство : YUV
Субдискретизация насыщенности : 4:2:0
Битовая глубина : 8 бит
Тип развёртки : MBAFF
Бит/(Пиксели*Кадры) : 0.523
Размер потока : 8,33 Гбайт (87%)
Default : Да
Forced : Нет
Аудио #1
Идентификатор : 2
Формат : AC-3
Формат/Информация : Audio Coding 3
Расширение режима : CM (complete main)
Идентификатор кодека : A_AC3
Продолжительность : 43 м.
Вид битрейта : Постоянный
Битрейт : 192 Кбит/сек
Каналы : 2 канала
Расположение каналов : Front: L R
Частота : 48,0 КГц
Битовая глубина : 16 бит
Метод сжатия : С потерями
Размер потока : 60,4 Мбайт (1%)
Язык : Russian
Default : Да
Forced : Нет
Аудио #2
Идентификатор : 3
Формат : DTS
Формат/Информация : Digital Theater Systems
Профиль формата : MA / Core
Идентификатор кодека : A_DTS
Продолжительность : 43 м.
Вид битрейта : Переменный
Битрейт : 1576 Кбит/сек / 1510 Кбит/сек
Каналы : 6 каналов
Расположение каналов : Front: L C R, Side: L R, LFE
Частота : 48,0 КГц
Битовая глубина : 16 бит
Метод сжатия : Без потерь / Lossy
Язык : German
Default : Нет
Forced : Нет
Аудио #3
Идентификатор : 4
Формат : DTS
Формат/Информация : Digital Theater Systems
Профиль формата : MA / Core
Идентификатор кодека : A_DTS
Продолжительность : 43 м.
Вид битрейта : Переменный
Битрейт : 1576 Кбит/сек / 1510 Кбит/сек
Каналы : 6 каналов
Расположение каналов : Front: L C R, Side: L R, LFE
Частота : 48,0 КГц
Битовая глубина : 16 бит
Метод сжатия : Без потерь / Lossy
Язык : English
Default : Нет
Forced : Нет
Меню
00:00:00.000 : ru:Chapter 01
00:03:32.399 : ru:Chapter 02
00:07:53.040 : ru:Chapter 03
00:11:13.079 : ru:Chapter 04
00:15:06.040 : ru:Chapter 05
00:19:30.880 : ru:Chapter 06
00:23:30.119 : ru:Chapter 07
00:26:43.840 : ru:Chapter 08
00:30:49.680 : ru:Chapter 09
00:33:57.560 : ru:Chapter 10
00:37:15.840 : ru:Chapter 11
00:40:17.319 : ru:Chapter 12

Episode2

Общее
Уникальный идентификатор : 181146170187436586027784954342751525434 (0x88477BBCA97ECB95A725D4794A66DA3A)
Полное имя : F:\Episode 2. Küste der Krokodile. Croc Coast BDremux.mkv
Формат : Matroska
Версия формата : Version 4 / Version 2
Размер файла : 9,51 Гбайт
Продолжительность : 44 м.
Режим общего битрейта : Переменный
Общий поток : 30,9 Мбит/сек
Дата кодирования : UTC 2015-02-11 15:46:14
Программа кодирования : mkvmerge v7.4.0 ('Circles') 32bit built on Dec 12 2014 12:10:09
Библиотека кодирования : libebml v1.3.0 + libmatroska v1.4.1
Видео
Идентификатор : 1
Формат : AVC
Формат/Информация : Advanced Video Codec
Профиль формата : High@L4.1
Параметр CABAC формата : Да
Параметр ReFrames формата : 4 кадра
Идентификатор кодека : V_MPEG4/ISO/AVC
Продолжительность : 44 м.
Вид битрейта : Переменный
Битрейт : 27,0 Мбит/сек
Максимальный битрейт : 35,0 Мбит/сек
Ширина : 1920 пикселей
Высота : 1080 пикселей
Соотношение сторон : 16:9
Частота кадров : 25,000 кадров/сек
Цветовое пространство : YUV
Субдискретизация насыщенности : 4:2:0
Битовая глубина : 8 бит
Тип развёртки : MBAFF
Бит/(Пиксели*Кадры) : 0.520
Размер потока : 8,30 Гбайт (87%)
Default : Да
Forced : Нет
Аудио #1
Идентификатор : 2
Формат : AC-3
Формат/Информация : Audio Coding 3
Расширение режима : CM (complete main)
Идентификатор кодека : A_AC3
Продолжительность : 44 м.
Вид битрейта : Постоянный
Битрейт : 192 Кбит/сек
Каналы : 2 канала
Расположение каналов : Front: L R
Частота : 48,0 КГц
Битовая глубина : 16 бит
Метод сжатия : С потерями
Размер потока : 60,5 Мбайт (1%)
Язык : Russian
Default : Да
Forced : Нет
Аудио #2
Идентификатор : 3
Формат : DTS
Формат/Информация : Digital Theater Systems
Профиль формата : MA / Core
Идентификатор кодека : A_DTS
Продолжительность : 44 м.
Вид битрейта : Переменный
Битрейт : 1576 Кбит/сек / 1510 Кбит/сек
Каналы : 6 каналов
Расположение каналов : Front: L C R, Side: L R, LFE
Частота : 48,0 КГц
Битовая глубина : 16 бит
Метод сжатия : Без потерь / Lossy
Язык : German
Default : Нет
Forced : Нет
Аудио #3
Идентификатор : 4
Формат : DTS
Формат/Информация : Digital Theater Systems
Профиль формата : MA / Core
Идентификатор кодека : A_DTS
Продолжительность : 44 м.
Вид битрейта : Переменный
Битрейт : 1576 Кбит/сек / 1510 Кбит/сек
Каналы : 6 каналов
Расположение каналов : Front: L C R, Side: L R, LFE
Частота : 48,0 КГц
Битовая глубина : 16 бит
Метод сжатия : Без потерь / Lossy
Язык : English
Default : Нет
Forced : Нет
Меню
00:00:00.000 : ru:Chapter 01
00:03:41.039 : ru:Chapter 02
00:07:39.680 : ru:Chapter 03
00:10:44.319 : ru:Chapter 04
00:14:44.640 : ru:Chapter 05
00:19:40.479 : ru:Chapter 06
00:22:54.199 : ru:Chapter 07
00:26:58.600 : ru:Chapter 08
00:29:57.279 : ru:Chapter 09
00:33:03.800 : ru:Chapter 10
00:36:21.479 : ru:Chapter 11
00:39:57.640 : ru:Chapter 12

Скриншоты

[Профиль] [ЛС]
Кто просматривает тему:

Форум Тема Автор Размер
Chanson (Шансон) VA - Дикая Мята - 2015, MP3, VBR 192-320 kbps Magnat 1.06 GB
BBC BBC: Дикая Бразилия / Wild Brazil [серии 1-3 из 3] (Джо Стивенс / Joe Stevens, Адам Уайт /Adam White) [2014 г., Документальный, природа, флора, фауна, HDTVRip 720p] skorpionN 5.78 GB
Nat Geo Wild Nat Geo Wild: Дикая Антарктика / Wild Antarctica (Jessica Connell) [2015 г., Документальный, научно-познавательный, HDTVRip-AVC 720p] skorpionN 1.59 GB
Nat Geo Wild Nat Geo Wild: Дикая Венеция / Wild Venice (Klaus T. Steindl) [2014 г., Документальный, природа, флора, фауна, HDTVRip 720p] skorpionN 1.59 GB
Nat Geo Wild Nat Geo Wild: Дикая Иберия / Wild Iberia [сезон 1 серии 1-4 из 4] (Альваро Мендоза / Alvaro Mendoza) [2014 г., Документальный, природа, флора, фауна, HDTVRip 720p] skorpionN 6.33 GB
Nat Geo Wild Nat Geo Wild: Дикая Колумбия / Wild Colombia [серии 1-3 из 3] (Andrew Moorwood) [2014 г., Документальный, природа, флора, фауна, HDTVRip 720p] skorpionN 4.78 GB
Nat Geo Wild Nat Geo Wild: Дикая Нижняя Калифорния / Wild Baja California (Michael Watchulonis) [2014 г., Документальный, флора, фауна, HDTVRip 720p] skorpionN 1.34 GB
Nat Geo Wild Nat Geo Wild: Дикая природа Индонезии / Wild Indonesia [ серии 1-3 из 3] (Charlie Lickock) [2014 г., Документальный, природа, флора, фауна, HDTVRip 720p] skorpionN 4.55 GB
Показать сообщения:    

Текущее время: Сегодня 21:00

Часовой пояс: GMT



Вы не можете начинать темы
Вы не можете отвечать на сообщения
Вы не можете редактировать свои сообщения
Вы не можете удалять свои сообщения
Вы не можете голосовать в опросах
Вы не можете прикреплять файлы к сообщениям
Вы не можете скачивать файлы