Дикая сторона кошек / Wild Side of Cats (Даниэла Палверер / Daniela Pulverer) [2012, Документальный, HDTVRip 720p]

 
Автор Сообщение

TorrentFilm ®

Пол:

Стаж: 2 года

Сообщений: 7741



Награды: Нет

Торрент-статистика

Создавать темы 23-Июл-2015 00:09

[Цитировать]

Дикая сторона кошек / Wild Side of Cats Год выпуска: 2012
Страна: США
Жанр: Документальный
Канал:
Продолжительность: 00:45:00
Перевод: Профессиональный (дублированный)
Доп. инфо о переводе: Александр Гаврилин / АРК·ТВ
Режиссер: Даниэла Палверер / Daniela Pulverer
Описание: Почему кошка царапает мебель? Почему она карабкается по шторам и сидит на верхней книжной полке? Команда экспертов собралась вместе, чтобы ответить на вопросы, которые буквально сводят с ума владельцев кошек во всем мире. Произведения киноискусства - "кошачьи камеры" - показывают, где именно горстка специально отобранных кошек прогуливается, когда покидает дом. Присоединяйтесь к нам, чтобы узнать, почему кошка, которая мирно спит рядом с вами на диване, является разносторонним и адаптирующимся существом, но не так уж сильно отличается от диких кошек из пустыни Калахари. История одомашнивания кошки, начавшаяся 10 000 лет назад, объясняет некоторые из плохих черт поведения наших питомцев.


Тип релиза: HDTVRip 720p
Контейнер: MKV
Видео: MPEG4 Video (H.264), 1280x720 (16:9), 4000 Kbps, 25 fps, 0.174 bit/pixel
Аудио RUS: MP2, 192 Кбит/с, 48 kHz, 2 ch
Аудио ENG: MP2, 192 Кбит/с, 48 kHz, 2 ch

Исходник: HDTV1080i спасибо LeXa 84

x264 log

...last pass...
x264.exe: --pass 2 --bitrate 4000 --preset slower --level 4.1 --ref 7 --merange 32 --bframes 9 --psy-rd 1.05:0.20 --vbv-bufsize 14000 --vbv-maxrate 14000 --partitions p8x8,b8x8,i4x4,i8x8 --sar 1:1 --stats "F:\Temp\0058.log" --output "F:\Temp\0058.264" "F:\Temp\0058.avs"
avs [info]: 1280x720p 1:1 @ 25/1 fps (cfr)
x264 [info]: using SAR=1/1
x264 [info]: using cpu capabilities: MMX2 SSE2Fast SSSE3 SSE4.2 AVX
x264 [info]: profile High, level 4.1
x264 [info]: frame I:553 Avg QP:15.09 size:132183
x264 [info]: frame P:19632 Avg QP:18.45 size: 39230
x264 [info]: frame B:47303 Avg QP:21.11 size: 10711
x264 [info]: consecutive B-frames: 5.7% 5.7% 9.3% 58.2% 9.3% 9.6% 1.2% 0.8% 0.1% 0.2%
x264 [info]: mb I I16..4: 7.8% 71.8% 20.4%
x264 [info]: mb P I16..4: 5.0% 23.8% 2.5% P16..4: 32.5% 17.9% 10.1% 0.0% 0.0% skip: 8.1%
x264 [info]: mb B I16..4: 0.5% 2.5% 0.3% B16..8: 33.6% 8.2% 1.8% direct: 8.1% skip:44.9% L0:39.9% L1:45.8% BI:14.2%
x264 [info]: 8x8 transform intra:75.9% inter:61.1%
x264 [info]: direct mvs spatial:98.8% temporal:1.2%
x264 [info]: coded y,uvDC,uvAC intra: 74.9% 81.1% 45.2% inter: 22.6% 30.0% 3.8%
x264 [info]: i16 v,h,dc,p: 19% 23% 5% 54%
x264 [info]: i8 v,h,dc,ddl,ddr,vr,hd,vl,hu: 14% 18% 6% 6% 10% 11% 11% 11% 13%
x264 [info]: i4 v,h,dc,ddl,ddr,vr,hd,vl,hu: 14% 19% 4% 7% 12% 12% 12% 9% 11%
x264 [info]: i8c dc,h,v,p: 31% 27% 22% 21%
x264 [info]: Weighted P-Frames: Y:5.6% UV:3.4%
x264 [info]: ref P L0: 58.1% 11.9% 16.3% 4.4% 3.8% 2.6% 2.6% 0.3% 0.0%
x264 [info]: ref B L0: 86.5% 8.1% 2.8% 1.4% 0.8% 0.4%
x264 [info]: ref B L1: 96.6% 3.4%
x264 [info]: kb/s:4000.44
x264 [total]: encoded 67488 frames, 12.32 fps, 4000.44 kb/s

MediaInfo

GeneralUnique ID : 183083380238197491468719243254633202711 (0x89BC93910CCF1535B3E4DABF80320417)Complete name : D:\Видео\Флора и фауна\Wild Side of Cats HDTVRip-720p.2012.mkvFormat : MatroskaFormat version : Version 4 / Version 2File size : 1.38 GiBDuration : 44mn 59sOverall bit rate : 4 387 KbpsEncoded date : UTC 2015-07-07 07:44:04Writing application : mkvmerge v8.1.0 ('Psychedelic Postcard') 64bitWriting library : libebml v1.3.1 + libmatroska v1.4.2DURATION : 00:44:59.496000000NUMBER_OF_FRAMES : 112479NUMBER_OF_BYTES : 64787904_STATISTICS_WRITING_APP : mkvmerge v8.1.0 ('Psychedelic Postcard') 64bit_STATISTICS_WRITING_DATE_UTC : 2015-07-07 07:44:04_STATISTICS_TAGS : BPS DURATION NUMBER_OF_FRAMES NUMBER_OF_BYTES
VideoID : 1Format : AVCFormat/Info : Advanced Video CodecFormat profile : High@L4.1Format settings, CABAC : YesFormat settings, ReFrames : 7 framesCodec ID : V_MPEG4/ISO/AVCDuration : 44mn 59sBit rate : 4 000 KbpsWidth : 1 280 pixelsHeight : 720 pixelsDisplay aspect ratio : 16:9Frame rate mode : ConstantFrame rate : 25.000 fpsColor space : YUVChroma subsampling : 4:2:0Bit depth : 8 bitsScan type : ProgressiveBits/(Pixel*Frame) : 0.174Stream size : 1.23 GiB (89%)Title : Автор рипа VicmanWriting library : x264 core 146 r2538 121396cEncoding settings : cabac=1 / ref=7 / deblock=1:0:0 / analyse=0x3:0x113 / me=umh / subme=9 / psy=1 / psy_rd=1.05:0.20 / mixed_ref=1 / me_range=32 / chroma_me=1 / trellis=2 / 8x8dct=1 / cqm=0 / deadzone=21,11 / fast_pskip=1 / chroma_qp_offset=-3 / threads=6 / lookahead_threads=1 / sliced_threads=0 / nr=0 / decimate=1 / interlaced=0 / bluray_compat=0 / constrained_intra=0 / bframes=9 / b_pyramid=2 / b_adapt=2 / b_bias=0 / direct=3 / weightb=1 / open_gop=0 / weightp=2 / keyint=250 / keyint_min=25 / scenecut=40 / intra_refresh=0 / rc_lookahead=60 / rc=2pass / mbtree=1 / bitrate=4000 / ratetol=1.0 / qcomp=0.60 / qpmin=0 / qpmax=69 / qpstep=4 / cplxblur=20.0 / qblur=0.5 / vbv_maxrate=14000 / vbv_bufsize=14000 / nal_hrd=none / filler=0 / ip_ratio=1.40 / aq=1:1.00Default : YesForced : No
Audio #1ID : 2Format : MPEG AudioFormat version : Version 1Format profile : Layer 2Codec ID : A_MPEG/L2Codec ID/Hint : MP2Duration : 44mn 59sBit rate mode : ConstantBit rate : 192 KbpsChannel(s) : 2 channelsSampling rate : 48.0 KHzCompression mode : LossyStream size : 61.8 MiB (4%)Title : Студия АРК-ТВLanguage : RussianDefault : YesForced : No
Audio #2ID : 3Format : MPEG AudioFormat version : Version 1Format profile : Layer 2Codec ID : A_MPEG/L2Codec ID/Hint : MP2Duration : 44mn 59sBit rate mode : ConstantBit rate : 192 KbpsChannel(s) : 2 channelsSampling rate : 48.0 KHzCompression mode : LossyStream size : 61.8 MiB (4%)Title : ОригиналLanguage : EnglishDefault : NoForced : No

Скриншоты

[Профиль] [ЛС]
Кто просматривает тему:

Форум Тема Автор Размер
Chanson (Шансон) VA - Дикая Мята - 2015, MP3, VBR 192-320 kbps Magnat 1.06 GB
BBC BBC: Дикая Бразилия / Wild Brazil [серии 1-3 из 3] (Джо Стивенс / Joe Stevens, Адам Уайт /Adam White) [2014 г., Документальный, природа, флора, фауна, HDTVRip 720p] skorpionN 5.78 GB
Nat Geo Wild Nat Geo Wild: Дикая Антарктика / Wild Antarctica (Jessica Connell) [2015 г., Документальный, научно-познавательный, HDTVRip-AVC 720p] skorpionN 1.59 GB
Nat Geo Wild Nat Geo Wild: Дикая Венеция / Wild Venice (Klaus T. Steindl) [2014 г., Документальный, природа, флора, фауна, HDTVRip 720p] skorpionN 1.59 GB
Nat Geo Wild Nat Geo Wild: Дикая Иберия / Wild Iberia [сезон 1 серии 1-4 из 4] (Альваро Мендоза / Alvaro Mendoza) [2014 г., Документальный, природа, флора, фауна, HDTVRip 720p] skorpionN 6.33 GB
Nat Geo Wild Nat Geo Wild: Дикая Колумбия / Wild Colombia [серии 1-3 из 3] (Andrew Moorwood) [2014 г., Документальный, природа, флора, фауна, HDTVRip 720p] skorpionN 4.78 GB
Nat Geo Wild Nat Geo Wild: Дикая Нижняя Калифорния / Wild Baja California (Michael Watchulonis) [2014 г., Документальный, флора, фауна, HDTVRip 720p] skorpionN 1.34 GB
Nat Geo Wild Nat Geo Wild: Дикая природа Индонезии / Wild Indonesia [ серии 1-3 из 3] (Charlie Lickock) [2014 г., Документальный, природа, флора, фауна, HDTVRip 720p] skorpionN 4.55 GB
Показать сообщения:    

Текущее время: Сегодня 20:46

Часовой пояс: GMT



Вы не можете начинать темы
Вы не можете отвечать на сообщения
Вы не можете редактировать свои сообщения
Вы не можете удалять свои сообщения
Вы не можете голосовать в опросах
Вы не можете прикреплять файлы к сообщениям
Вы не можете скачивать файлы