Дикая природа. Семейные узы: Западная равнинная горилла / Wild Life. Family Ties: Western Lowland Gorilla (Kazunori Watanabe) [2012, документальный, HDTV 1080i]

 
Автор Сообщение

TorrentFilm ®

Пол:

Стаж: 2 года

Сообщений: 7741



Награды: Нет

Торрент-статистика

Создавать темы 28-Дек-2014 00:30

[Цитировать]

Дикая природа. Семейные узы: Западная равнинная горилла / Wild Life. Family Ties: Western Lowland Gorilla
Год выпуска: 2012
Страна: Япония
Студия: NHK
Жанр: документальный
Продолжительность: 00:52:02
Перевод: Студийный (одноголосый закадровый)
Доп. инфо о переводе: ТПО "Рэд-Медиа"
Русские субтитры: нет
Режиссер: Kazunori Watanabe
Описание: Гигантские гориллы - замечательные приматы. Самцы обычно весят более 200 кг. Когда-то считалось, что эти могучие обезьяны живут только на земле. Однако было обнаружено, что гориллы, живущие в тропических лесах Габона могут лазать по деревьям высотой 30 метров в поисках листьев и плодов. Эта программа освещает многие детали древесной жизни горилл. После девяти лет наблюдения за большой семьей горилл выявлены такие удивительные факты, как поддержка, которую молодая горилла получает от остальных членов его семьи после потери руки при жестоком нападении.
Сэмпл: https://yadi.sk/i/irW_d7EQdN4Jc
Тип релиза: HDTV 1080i
Контейнер: TS
Видео: AVC, 1920x1080 (16/9), 25.000 fps, 11.5 Mbps (0.221 bit/pixel)
Аудио: MP2, 48.0 KHz, 2 ch, 192 Kbps, CBR (Russian)

MediaInfo

ОбщееИдентификатор : 5 (0x5)Полное имя : K:\Дикая природа Семейные узы Западная равнинная горилла.tsФормат : MPEG-TSРазмер файла : 4,56 ГбайтПродолжительность : 52 м.Режим общего битрейта : ПеременныйОбщий поток : 12,5 Мбит/сек
ВидеоИдентификатор : 271 (0x10F)Идентификатор меню : 3 (0x3)Формат : AVCФормат/Информация : Advanced Video CodecПрофиль формата : High@L4.0Параметр CABAC формата : ДаПараметр ReFrames формата : 4 кадраПараметр GOP формата : M=4, N=28Идентификатор кодека : 27Продолжительность : 52 м.Битрейт : 11,7 Мбит/секШирина : 1920 пикселейВысота : 1080 пикселейСоотношение сторон : 16:9Частота кадров : 25,000 кадров/секСтандарт вещания : ComponentЦветовое пространство : YUVСубдискретизация насыщенности : 4:2:0Битовая глубина : 8 битТип развёртки : ЧересстрочнаяПорядок развёртки : Верхнее поле первоеБит/(Пиксели*Кадры) : 0.226Размер потока : 4,26 Гбайт (94%)Основные цвета : BT.709Характеристики трансфера : BT.709Коэффициенты матрицы : BT.709
АудиоИдентификатор : 277 (0x115)Идентификатор меню : 3 (0x3)Формат : MPEG AudioВерсия формата : Version 1Профиль формата : Layer 2Идентификатор кодека : 4Продолжительность : 52 м.Вид битрейта : ПостоянныйБитрейт : 192 Кбит/секКаналы : 2 каналаЧастота : 48,0 КГцМетод сжатия : С потерямиЗадержка видео : -13 мс.Размер потока : 71,5 Мбайт (2%)Язык : RussianЯзык, дополнительно : Clean effects

Скриншоты

[Профиль] [ЛС]
Кто просматривает тему:

Форум Тема Автор Размер
Chanson (Шансон) VA - Дикая Мята - 2015, MP3, VBR 192-320 kbps Magnat 1.06 GB
BBC BBC: Дикая Бразилия / Wild Brazil [серии 1-3 из 3] (Джо Стивенс / Joe Stevens, Адам Уайт /Adam White) [2014 г., Документальный, природа, флора, фауна, HDTVRip 720p] skorpionN 5.78 GB
Nat Geo Wild Nat Geo Wild: Дикая Антарктика / Wild Antarctica (Jessica Connell) [2015 г., Документальный, научно-познавательный, HDTVRip-AVC 720p] skorpionN 1.59 GB
Nat Geo Wild Nat Geo Wild: Дикая Венеция / Wild Venice (Klaus T. Steindl) [2014 г., Документальный, природа, флора, фауна, HDTVRip 720p] skorpionN 1.59 GB
Nat Geo Wild Nat Geo Wild: Дикая Иберия / Wild Iberia [сезон 1 серии 1-4 из 4] (Альваро Мендоза / Alvaro Mendoza) [2014 г., Документальный, природа, флора, фауна, HDTVRip 720p] skorpionN 6.33 GB
Nat Geo Wild Nat Geo Wild: Дикая Колумбия / Wild Colombia [серии 1-3 из 3] (Andrew Moorwood) [2014 г., Документальный, природа, флора, фауна, HDTVRip 720p] skorpionN 4.78 GB
Nat Geo Wild Nat Geo Wild: Дикая Нижняя Калифорния / Wild Baja California (Michael Watchulonis) [2014 г., Документальный, флора, фауна, HDTVRip 720p] skorpionN 1.34 GB
Nat Geo Wild Nat Geo Wild: Дикая природа Индонезии / Wild Indonesia [ серии 1-3 из 3] (Charlie Lickock) [2014 г., Документальный, природа, флора, фауна, HDTVRip 720p] skorpionN 4.55 GB
Показать сообщения:    

Текущее время: Сегодня 14:37

Часовой пояс: GMT



Вы не можете начинать темы
Вы не можете отвечать на сообщения
Вы не можете редактировать свои сообщения
Вы не можете удалять свои сообщения
Вы не можете голосовать в опросах
Вы не можете прикреплять файлы к сообщениям
Вы не можете скачивать файлы