Дикая красота Корсики / Corsica wild beauty (Jean Froment) [2013, Документальный, HDTV 1080i]

 
Автор Сообщение

TorrentFilm ®

Пол:

Стаж: 2 года

Сообщений: 7741



Награды: Нет

Торрент-статистика

Создавать темы 26-Фев-2015 00:01

[Цитировать]

Дикая красота Корсики / Corsica wild beauty
Год выпуска: 2013
Страна: Франция
Жанр: Документальный
Продолжительность: 00:26:00
Перевод: Одноголосый закадровый
Режиссер: Jean Froment
Описание: Документальный сериал об удивительном уголке средиземноморья – острове Корсика
Дикая красота Корсики, 1 эп. Вертикальный остров
Дикая красота Корсики, 2 эп. Между морем и ветрами
Дикая красота Корсики, 3 эп. Растительный мир
Дикая красота Корсики, 4 эп. Долины и люди
Дикая красота Корсики, 5 эп. Земля воспоминаний
Тип релиза: HDTV 1080i
Контейнер: TS
Видео: H264; 1920x1080 (16:9); 25.000 fps; ~10.6 Mbps
Аудио: MPEG Audio 48000Hz stereo 192 Кбит/сек

MediaInfo

GeneralID : 1 (0x1)Complete name : Q:\ДИСК-1\Дикая красота Корсики_1080i_[RUTRACKER.ORG]_by kuzmichm2196\Дикая красота Корсики, 1 эп. Вертикальный остров.tsFormat : MPEG-TSFile size : 2.12 GiBDuration : 26mn 50sOverall bit rate mode : VariableOverall bit rate : 11.3 Mbps
VideoID : 2152 (0x868)Menu ID : 1 (0x1)Format : AVCFormat/Info : Advanced Video CodecFormat profile : High@L4.0Format settings, CABAC : YesFormat settings, ReFrames : 4 framesCodec ID : 27Duration : 26mn 50sBit rate : 10.6 MbpsWidth : 1 920 pixelsHeight : 1 080 pixelsDisplay aspect ratio : 16:9Frame rate : 25.000 fpsStandard : ComponentColor space : YUVChroma subsampling : 4:2:0Bit depth : 8 bitsScan type : InterlacedBits/(Pixel*Frame) : 0.204Stream size : 1.98 GiB (93%)Color primaries : BT.709Transfer characteristics : BT.709Matrix coefficients : BT.709
AudioID : 2155 (0x86B)Menu ID : 1 (0x1)Format : MPEG AudioFormat version : Version 1Format profile : Layer 2Codec ID : 3Duration : 26mn 50sBit rate mode : ConstantBit rate : 192 KbpsChannel(s) : 2 channelsSampling rate : 48.0 KHzCompression mode : LossyDelay relative to video : -40msStream size : 36.9 MiB (2%)Language : Russian

Скриншоты




[Профиль] [ЛС]
Кто просматривает тему:

Форум Тема Автор Размер
Chanson (Шансон) VA - Дикая Мята - 2015, MP3, VBR 192-320 kbps Magnat 1.06 GB
BBC BBC: Дикая Бразилия / Wild Brazil [серии 1-3 из 3] (Джо Стивенс / Joe Stevens, Адам Уайт /Adam White) [2014 г., Документальный, природа, флора, фауна, HDTVRip 720p] skorpionN 5.78 GB
Nat Geo Wild Nat Geo Wild: Дикая Антарктика / Wild Antarctica (Jessica Connell) [2015 г., Документальный, научно-познавательный, HDTVRip-AVC 720p] skorpionN 1.59 GB
Nat Geo Wild Nat Geo Wild: Дикая Венеция / Wild Venice (Klaus T. Steindl) [2014 г., Документальный, природа, флора, фауна, HDTVRip 720p] skorpionN 1.59 GB
Nat Geo Wild Nat Geo Wild: Дикая Иберия / Wild Iberia [сезон 1 серии 1-4 из 4] (Альваро Мендоза / Alvaro Mendoza) [2014 г., Документальный, природа, флора, фауна, HDTVRip 720p] skorpionN 6.33 GB
Nat Geo Wild Nat Geo Wild: Дикая Колумбия / Wild Colombia [серии 1-3 из 3] (Andrew Moorwood) [2014 г., Документальный, природа, флора, фауна, HDTVRip 720p] skorpionN 4.78 GB
Nat Geo Wild Nat Geo Wild: Дикая Нижняя Калифорния / Wild Baja California (Michael Watchulonis) [2014 г., Документальный, флора, фауна, HDTVRip 720p] skorpionN 1.34 GB
Nat Geo Wild Nat Geo Wild: Дикая природа Индонезии / Wild Indonesia [ серии 1-3 из 3] (Charlie Lickock) [2014 г., Документальный, природа, флора, фауна, HDTVRip 720p] skorpionN 4.55 GB
Показать сообщения:    

Текущее время: Сегодня 14:26

Часовой пояс: GMT



Вы не можете начинать темы
Вы не можете отвечать на сообщения
Вы не можете редактировать свои сообщения
Вы не можете удалять свои сообщения
Вы не можете голосовать в опросах
Вы не можете прикреплять файлы к сообщениям
Вы не можете скачивать файлы