Дикая Канада / Terra Mater: Wildes Kanada (Серии 04 из 04) (Джефф Тернер / Jeff Turner) [2014, документальный, BDRip 720p]

 
Автор Сообщение

TorrentFilm ®

Пол:

Стаж: 2 года

Сообщений: 7741



Награды: Нет

Торрент-статистика

Создавать темы 31-Июл-2015 00:07

[Цитировать]

Дикая Канада / Terra Mater: Wildes Kanada
-Год выпуска: 2014
Страна: Австрия
Жанр: Документальный
Продолжительность: 4 х ~00:52:00
Перевод: Одноголосый закадровый, студия «Омикрон», «Велес»
Режиссер: Джефф Тернер / Jeff Turner
В ролях: Франц Роберт Вагнер / Franz Robert Wagner-Описание: Красивые съёмки и мастерская работа над материалом составляют четыре эпизода передачи Дикая Канада, которые проведут нас по захватывающей истории северной части Североамериканского континента. Захватывающие дух воздушные съёмки, невероятная работа операторов, впечатляющие замедленные кадры умело вплетены в сюжет, оживляя повествование. От побережья к побережью, от равнин до лесов, от широких прерий до холодных и на вид пустых арктических ландшафтов — это всеобъемлющий рассказ о стране, которая сегодня известна под названием Канада.-Тип релиза: BDRip 720p
Контейнер: MKV
Видео: 1280x720 at 25.000 fps, x264@L4.1, ~8687 kbps
Аудио: Russian: 48 kHz/16-bit, АС3, 3/2 (L,C,R,l,r) + LFE ch, ~640 kbps |Одноголосый закадровый, студия «Омикрон»|
Аудио 2: Russian: 48 kHz/16-bit, АС3, 2.0 (L,R) ch, ~192 kbps |Одноголосый закадровый, студия «Велес»|
Аудио 3: English: 48 kHz/16-bit, АС3, 3/2 (L,C,R,l,r) + LFE ch, ~640 kbps
Субтитры: Russian (full & force for Veles), Dutch
Сэмпл-Релиз: by DeTorquemada-

Содержание

Эпизод 1: Вечная целина / Episode 1: Das ewige Neuland / Episode 1: The Eternal Frontier
Необычное путешествие, начинающееся со спектакля горбатых китов, питающихся мойвой у полуострова Ньюфаундленд до крупнейших в мире девственных умеренных тропических лесов в Британской Колумбии, которая является домом для редкой разновидности кермодского медведя. Акробатические номера летающих белок и тысячи спаривающихся аспидов лишь некоторые из невероятного множества диких животных.-Эпизод 2: Дикий Запад / Episode 2: Der Wilde Westen / Episode 2: : The Wild West
Путешествие из тайного мира влажный и наиболее биологически разнообразным ландшафтом Канады, умеренного тропического леса на заснеженные вершины Скалистых гор. Истории интимное и эпический: от волков, которые рыбы лосося на захватывающих звуков удар головой мужской большой рог овец, чтобы покрытых льдом медведей гризли, живущих недалеко от Полярного круга. Древние береговые леса скрыть редко рассказывал о человеческих отношениях и дикой природы, которые сосуществовали в течение тысяч лет.-Эпизод 3: В сердце страны / Episode 3: Die endlose Weite / Episode 3: The Heartland
Из степей до огромного бореальных лесов Канады, который простирается почти от побережья до побережья, мы раскрыть огромный пустыни крайностей, которые были на протяжении тысячелетий формы обеих людей и лесных пожаров. Вот Pronghorn антилопы, быстрый копытных животных земли, на земле, все еще преследуют луга, неуловимый росомаха процветает в ледяных отдаленных северных лесов и бобра акции своих уютных домиках с благодарными ондатр.-Эпизод 4: У кромки льда / Episode 4: Der Hohe Norden / Episode 4: Ice Edge
Пейзаж населен дикой природы и людей, которые нашли удивительное разнообразие способов, чтобы выжить. От полярные медвежата делает их первое открытие льда карибу теленка "танцы" в холодном весеннем воздухе, чтобы гаги дайвинг под лед, чтобы найти мидии, мы наблюдаем крайности и чудеса жизни далеко на север.

MediaInfo

Общее
Уникальный идентификатор : 184698201733423132821220607018689033206 (0x8AF39469CB3F9FFABAC66DD2551EF3F6)
Полное имя : D:\Movies\Wild Canada.S01.2014.720p.BluRay.2xRus.Eng.HDCLUB\Wild Canada.S01E01.The Eternal.Frontier.2014.720p.BluRay.2xRus.Eng.HDCLUB.mkv
Формат : Matroska
Версия формата : Version 4 / Version 2
Размер файла : 3,78 Гбайт
Продолжительность : 52 м.
Общий поток : 10,4 Мбит/сек
Название фильма : Create by DeTorquemada for HDCLUB
Дата кодирования : UTC 2015-06-12 16:58:32
Программа кодирования : mkvmerge v7.9.0 ('Birds') 64bit
Библиотека кодирования : libebml v1.3.1 + libmatroska v1.4.2
Видео
Идентификатор : 1
Формат : AVC
Формат/Информация : Advanced Video Codec
Профиль формата : High@L4.1
Параметр CABAC формата : Да
Параметр ReFrames формата : 7 кадров
Идентификатор кодека : V_MPEG4/ISO/AVC
Продолжительность : 52 м.
Битрейт : 8687 Кбит/сек
Ширина : 1280 пикселей
Высота : 720 пикселей
Соотношение сторон : 16:9
Режим частоты кадров : Постоянный
Частота кадров : 25,000 кадров/сек
Цветовое пространство : YUV
Субдискретизация насыщенности : 4:2:0
Битовая глубина : 8 бит
Тип развёртки : Прогрессивная
Бит/(Пиксели*Кадры) : 0.377
Размер потока : 3,16 Гбайт (84%)
Заголовок : Эпизод 1: Вечная целина / Episode 1: Das ewige Neuland / Episode 1: The Eternal Frontier (2014) - Release for HDCLUB
Библиотека кодирования : x264 core 133 r2334 a3ac64b
Настройки программы : cabac=1 / ref=7 / deblock=1:-3:-3 / analyse=0x3:0x113 / me=umh / subme=10 / psy=1 / psy_rd=1.00:0.08 / mixed_ref=1 / me_range=24 / chroma_me=1 / trellis=2 / 8x8dct=1 / cqm=0 / deadzone=21,11 / fast_pskip=0 / chroma_qp_offset=-3 / threads=6 / lookahead_threads=1 / sliced_threads=0 / nr=0 / decimate=0 / interlaced=0 / bluray_compat=0 / constrained_intra=0 / bframes=7 / b_pyramid=2 / b_adapt=2 / b_bias=0 / direct=3 / weightb=1 / open_gop=0 / weightp=2 / keyint=250 / keyint_min=25 / scenecut=40 / intra_refresh=0 / rc_lookahead=50 / rc=crf / mbtree=1 / crf=15.8 / qcomp=0.70 / qpmin=0 / qpmax=69 / qpstep=4 / vbv_maxrate=50000 / vbv_bufsize=60000 / crf_max=0.0 / nal_hrd=none / ip_ratio=1.40 / aq=1:0.80
Язык : English
Default : Да
Forced : Нет
Аудио #1
Идентификатор : 2
Формат : AC-3
Формат/Информация : Audio Coding 3
Расширение режима : CM (complete main)
Параметр Endianness формата : Big
Идентификатор кодека : A_AC3
Продолжительность : 52 м.
Вид битрейта : Постоянный
Битрейт : 640 Кбит/сек
Каналы : 6 каналов
Расположение каналов : Front: L C R, Side: L R, LFE
Частота : 48,0 КГц
Метод сжатия : С потерями
Размер потока : 239 Мбайт (6%)
Заголовок : 48KHz/16-bit, АС3, 3/2 (L,C,R,l,r) + LFE ch, ~640 kbps - Профессиональный oдноголосый, студия Омикрон
Язык : Russian
Default : Да
Forced : Нет
Аудио #2
Идентификатор : 3
Формат : AC-3
Формат/Информация : Audio Coding 3
Расширение режима : CM (complete main)
Параметр Endianness формата : Big
Идентификатор кодека : A_AC3
Продолжительность : 52 м.
Вид битрейта : Постоянный
Битрейт : 192 Кбит/сек
Каналы : 2 канала
Расположение каналов : Front: L R
Частота : 48,0 КГц
Метод сжатия : С потерями
Размер потока : 71,6 Мбайт (2%)
Заголовок : 48KHz/16-bit, AC3, 2.0 (L,R) ch, ~192 kbps - Профессиональный oдноголосый, студия Велес
Язык : Russian
Default : Нет
Forced : Нет
Аудио #3
Идентификатор : 4
Формат : AC-3
Формат/Информация : Audio Coding 3
Расширение режима : CM (complete main)
Параметр Endianness формата : Big
Идентификатор кодека : A_AC3
Продолжительность : 52 м.
Вид битрейта : Постоянный
Битрейт : 640 Кбит/сек
Каналы : 6 каналов
Расположение каналов : Front: L C R, Side: L R, LFE
Частота : 48,0 КГц
Метод сжатия : С потерями
Размер потока : 239 Мбайт (6%)
Заголовок : 48KHz/16-bit, АС3, 3/2 (L,C,R,l,r) + LFE ch, ~640 kbps
Язык : English
Default : Нет
Forced : Нет
Текст #1
Идентификатор : 5
Формат : UTF-8
Идентификатор кодека : S_TEXT/UTF8
Идентификатор кодека/Информация : UTF-8 Plain Text
Заголовок : Subtitles/Captions (full)
Язык : Russian
Default : Нет
Forced : Нет
Текст #2
Идентификатор : 6
Формат : UTF-8
Идентификатор кодека : S_TEXT/UTF8
Идентификатор кодека/Информация : UTF-8 Plain Text
Заголовок : Subtitles/Captions (force for Veles)
Язык : Russian
Default : Нет
Forced : Нет
Текст #3
Идентификатор : 7
Формат : UTF-8
Идентификатор кодека : S_TEXT/UTF8
Идентификатор кодека/Информация : UTF-8 Plain Text
Заголовок : Subtitles/Captions
Язык : Dutch
Default : Нет
Forced : Нет
Меню
00:00:00.000 : en:00:00:00.000
00:13:47.120 : en:00:13:47.120
00:25:13.800 : en:00:25:13.800
00:38:34.320 : en:00:38:34.320

Скриншоты

Дополнительно

Спасибо BS666 за сведение русской дорожки с TVRip'а от студии "Велес". Версия показанная по ТВ короче чем на Blu-Ray, в каждой серии присутствуют не переведенные места ~ 9 мин
Озвучивание осуществлено в рамках сервиса "Озвучивание". Спонсоры: lokolex, Turko, laser10, Воваростов, terminal, rmn84, vitaliysan, goriathid, WHITESNAKEW, snb, RAUL, NABBY, kirill_sky, ash61, Nike997, Bka, mtk99, Plesha, Vitboo.
Раздача от группы:
[Профиль] [ЛС]
Кто просматривает тему:

Форум Тема Автор Размер
Chanson (Шансон) VA - Дикая Мята - 2015, MP3, VBR 192-320 kbps Magnat 1.06 GB
BBC BBC: Дикая Бразилия / Wild Brazil [серии 1-3 из 3] (Джо Стивенс / Joe Stevens, Адам Уайт /Adam White) [2014 г., Документальный, природа, флора, фауна, HDTVRip 720p] skorpionN 5.78 GB
Nat Geo Wild Nat Geo Wild: Дикая Антарктика / Wild Antarctica (Jessica Connell) [2015 г., Документальный, научно-познавательный, HDTVRip-AVC 720p] skorpionN 1.59 GB
Nat Geo Wild Nat Geo Wild: Дикая Венеция / Wild Venice (Klaus T. Steindl) [2014 г., Документальный, природа, флора, фауна, HDTVRip 720p] skorpionN 1.59 GB
Nat Geo Wild Nat Geo Wild: Дикая Иберия / Wild Iberia [сезон 1 серии 1-4 из 4] (Альваро Мендоза / Alvaro Mendoza) [2014 г., Документальный, природа, флора, фауна, HDTVRip 720p] skorpionN 6.33 GB
Nat Geo Wild Nat Geo Wild: Дикая Колумбия / Wild Colombia [серии 1-3 из 3] (Andrew Moorwood) [2014 г., Документальный, природа, флора, фауна, HDTVRip 720p] skorpionN 4.78 GB
Nat Geo Wild Nat Geo Wild: Дикая Нижняя Калифорния / Wild Baja California (Michael Watchulonis) [2014 г., Документальный, флора, фауна, HDTVRip 720p] skorpionN 1.34 GB
Nat Geo Wild Nat Geo Wild: Дикая природа Индонезии / Wild Indonesia [ серии 1-3 из 3] (Charlie Lickock) [2014 г., Документальный, природа, флора, фауна, HDTVRip 720p] skorpionN 4.55 GB
Показать сообщения:    

Текущее время: Сегодня 06:07

Часовой пояс: GMT



Вы не можете начинать темы
Вы не можете отвечать на сообщения
Вы не можете редактировать свои сообщения
Вы не можете удалять свои сообщения
Вы не можете голосовать в опросах
Вы не можете прикреплять файлы к сообщениям
Вы не можете скачивать файлы