Дикая жизнь / Das wilde Leben (Ахим Борнак / Achim Bornhak) [2007, Германия, драма, биография, DVDRip] VO (Гундос) + Original Ger

 
Автор Сообщение

reversefile ®

Пол:

Стаж: 4 года 5 месяцев

Сообщений: 842

Откуда: ReverseFile.org



Награды: Нет

Торрент-статистика

Создавать темы 11-Авг-2014 10:46

[Цитировать]

Дикая жизнь / Das wilde Leben
Страна: Германия
Жанр: драма, биография
Год выпуска: 2007
Продолжительность: 01:49:13
Перевод: Одноголосый закадровый (Гундос)
Cубтитры: нет
Оригинальная аудиодорожка: немецкий
Режиссер: Ахим Борнак / Achim Bornhak
В ролях: Натали Авелон, Дэвид Шеллер, Маттиас Швайгхефер, Фридерике Кемптер, Александер Шеер
Описание: Фильм основан на реальной истории Уши Обермайер. Эта уроженка Мюнхена вела активный сексуальный образ жизни под девизом «Make Love, Not War», жила в хипповской коммуне, крутила любовь с Миком Джаггером и Китом Ричардсом из Rolling Stones, благодаря чему и прославилась на весь мир.
Взаимоотношения Уши Обермайер с Дитером Кунцельманн, Миком Джаггером, 10 летний роман с Дитером Богхорм и их путешествие на самодельном автобусе по Азии, США и Мексике-все эти моменты нашли отражение в этом фильме.
Сэмпл: http://multi-up.com/973235
Качество видео: DVDRip
Формат видео: AVI
Видео: 640x352 (1.82:1), 25 fps, XviD build 46 ~1318 kbps avg, 0.23 bit/pixel
Аудио: 48 kHz, MPEG Layer 3, 2 ch, ~128.00 kbps avg (Гундос)
Аудио 2: 48 kHz, AC3 Dolby Digital, 3/2 (L,C,R,l,r) + LFE ch, ~448.00 kbps avg (Немецкий)
Релиз:

MediaInfo

General
Complete name : E:\Das.Wilde.Leben.2007.avi
Format : AVI
Format/Info : Audio Video Interleave
File size : 1.46 GiB
Duration : 1h 49mn
Overall bit rate : 1 910 Kbps
Writing application : VirtualDubMod 1.5.10.1 (build 2366/release)
Video
ID : 0
Format : MPEG-4 Visual
Format profile : Advanced Simple@L5
Format settings, BVOP : 2
Format settings, QPel : Yes
Format settings, GMC : No warppoints
Format settings, Matrix : Default (MPEG)
Codec ID : XVID
Codec ID/Hint : XviD
Duration : 1h 49mn
Bit rate : 1 320 Kbps
Width : 640 pixels
Height : 352 pixels
Display aspect ratio : 16:9
Frame rate : 25.000 fps
Color space : YUV
Chroma subsampling : 4:2:0
Bit depth : 8 bits
Scan type : Interlaced
Scan order : Bottom Field First
Compression mode : Lossy
Bits/(Pixel*Frame) : 0.234
Stream size : 1.01 GiB (69%)
Writing library : XviD 1.1.2 (UTC 2006-11-01)
Audio #1
ID : 1
Format : MPEG Audio
Format version : Version 1
Format profile : Layer 3
Mode : Joint stereo
Mode extension : MS Stereo
Codec ID : 55
Codec ID/Hint : MP3
Duration : 1h 49mn
Bit rate mode : Constant
Bit rate : 128 Kbps
Channel count : 2 channels
Sampling rate : 48.0 KHz
Compression mode : Lossy
Stream size : 100.0 MiB (7%)
Alignment : Aligned on interleaves
Interleave, duration : 40 ms (1.00 video frame)
Interleave, preload duration : 504 ms
Audio #2
ID : 2
Format : AC-3
Format/Info : Audio Coding 3
Mode extension : CM (complete main)
Format settings, Endianness : Big
Codec ID : 2000
Duration : 1h 49mn
Bit rate mode : Constant
Bit rate : 448 Kbps
Channel count : 6 channels
Channel positions : Front: L C R, Side: L R, LFE
Sampling rate : 48.0 KHz
Bit depth : 16 bits
Compression mode : Lossy
Stream size : 350 MiB (23%)
Alignment : Split accross interleaves
Interleave, duration : 40 ms (1.00 video frame)
Interleave, preload duration : 500 ms

Скриншоты

[Профиль] [ЛС]

Создавать темы 06-Авг-2015 23:20 (спустя 11 месяцев 26 дней)

Топик был перенесен из форума Фильмы до 2014 года в форум Фильмы до 2012 года
sergej644
 
Кто просматривает тему:

Форум Тема Автор Размер
Chanson (Шансон) VA - Дикая Мята - 2015, MP3, VBR 192-320 kbps Magnat 1.06 GB
BBC BBC: Дикая Бразилия / Wild Brazil [серии 1-3 из 3] (Джо Стивенс / Joe Stevens, Адам Уайт /Adam White) [2014 г., Документальный, природа, флора, фауна, HDTVRip 720p] skorpionN 5.78 GB
Nat Geo Wild Nat Geo Wild: Дикая Антарктика / Wild Antarctica (Jessica Connell) [2015 г., Документальный, научно-познавательный, HDTVRip-AVC 720p] skorpionN 1.59 GB
Nat Geo Wild Nat Geo Wild: Дикая Венеция / Wild Venice (Klaus T. Steindl) [2014 г., Документальный, природа, флора, фауна, HDTVRip 720p] skorpionN 1.59 GB
Nat Geo Wild Nat Geo Wild: Дикая Иберия / Wild Iberia [сезон 1 серии 1-4 из 4] (Альваро Мендоза / Alvaro Mendoza) [2014 г., Документальный, природа, флора, фауна, HDTVRip 720p] skorpionN 6.33 GB
Nat Geo Wild Nat Geo Wild: Дикая Колумбия / Wild Colombia [серии 1-3 из 3] (Andrew Moorwood) [2014 г., Документальный, природа, флора, фауна, HDTVRip 720p] skorpionN 4.78 GB
Nat Geo Wild Nat Geo Wild: Дикая Нижняя Калифорния / Wild Baja California (Michael Watchulonis) [2014 г., Документальный, флора, фауна, HDTVRip 720p] skorpionN 1.34 GB
Nat Geo Wild Nat Geo Wild: Дикая природа Индонезии / Wild Indonesia [ серии 1-3 из 3] (Charlie Lickock) [2014 г., Документальный, природа, флора, фауна, HDTVRip 720p] skorpionN 4.55 GB
Показать сообщения:    

Текущее время: Сегодня 01:09

Часовой пояс: GMT



Вы не можете начинать темы
Вы не можете отвечать на сообщения
Вы не можете редактировать свои сообщения
Вы не можете удалять свои сообщения
Вы не можете голосовать в опросах
Вы не можете прикреплять файлы к сообщениям
Вы не можете скачивать файлы