Дикая грация / Savage Grace (2007) WEB-DL 720p | P2

 
Автор Сообщение

BOSS ®

Пол:

Стаж: 3 года

Сообщений: 7568

Откуда: ODESSA



Награды: 22 (Подробнее)

Top Keeper 1 (Количество: 1) Top Seeder 4 (Количество: 1) Top Keeper 4 (Количество: 1)
Торрент-статистика

Создавать темы 31-Июл-2017 15:40

[Цитировать]

Информация о фильме
Название: Дикая грация
Оригинальное название: Savage Grace
Год выхода: 2007
Жанр: драма
Режиссер: Том Кэлин
В ролях: Джулианна Мур, Стивен Диллэйн, Эдди Редмэйн, Энн Рейд, Мартин Хубер, Минни Маркс, Джим Арнольд, Мапи Галан, Барни Кларк, Абель Фолк, Белен Руэда, Симон Андреу
О фильме:
История фильма основанного на реальной истории, события которой разворачивались в Лондоне 1972 года.
Молодая красавица Барбара Дэйли выходит замуж за богатого промышленника и наследника огромного состояния. Супружеская пара вращается в высших кругах общества, не отказывая себе во всевозможных удовольствиях. Их отношения нельзя назвать обычными: внезапно возникающие романы на стороне, случайный секс и сменяющие их приступы ревности и страсти у обоих супругов. У них растет сын, который поневоле впитывает все происходящее и по-своему воспринимает.
С возрастом он все больше убеждается, что девушки его не интересуют, и склоняется к нетрадиционной ориентации. Видя увлечения своего сына и пытаясь предотвратить это, Барбара решается соблазнить его, не думая о том, какую страшную трагедию она может навлечь, переступив эту запретную черту.

Страна: Испания, США, Франция
Продолжительность: 01:37:35
Перевод: Профессиональный (двухголосый закадровый) студия Инис по заказу Союз-Видео
Файл
Формат: MKV
Видео: 1280x686 at 23.976 fps, MPEG-4 AVC, ~3974 kbps avg
Aудио#1: Russian: 48 kHz, AC3, 3/2 (L,C,R,l,r) + LFE ch, ~448.00 kbps avg
Aудио#2: English: 48 kHz, AC3, 2/0 (L,R) ch, ~192.00 kbps avg
Субтитры: русские, английские

MediaInfo

General
Unique ID : 182063025251358930558250697550075360015 (0x88F8102E83546CF08F56353E6D85730F)
Complete name : Savage.Grace.2007.WEB-DL.720p.mkv
Format : Matroska
Format version : Version 4 / Version 2
File size : 3.21 GiB
Duration : 1 h 37 min
Overall bit rate : 4 708 kb/s
Encoded date : UTC 2015-10-06 16:47:45
Writing application : mkvmerge v6.1.0 ('Old Devil') built on Mar 2 2013 14:32:37
Writing library : libebml v1.3.0 + libmatroska v1.4.0
Video
ID : 1
Format : AVC
Format/Info : Advanced Video Codec
Format profile : High@L3.1
Format settings, CABAC : No
Format settings, ReFrames : 2 frames
Codec ID : V_MPEG4/ISO/AVC
Duration : 1 h 37 min
Bit rate : 3 974 kb/s
Width : 1 280 pixels
Height : 686 pixels
Display aspect ratio : 1.85:1
Frame rate mode : Constant
Frame rate : 23.976 FPS
Color space : YUV
Chroma subsampling : 4:2:0
Bit depth : 8 bits
Scan type : Progressive
Bits/(Pixel*Frame) : 0.189
Stream size : 2.71 GiB (84%)
Language : English
Default : Yes
Forced : No
Color range : Limited
Color primaries : BT.709
Transfer characteristics : BT.709
Matrix coefficients : BT.709
Audio #1
ID : 2
Format : AC-3
Format/Info : Audio Coding 3
Format settings, Endianness : Big
Codec ID : A_AC3
Duration : 1 h 37 min
Bit rate mode : Constant
Bit rate : 448 kb/s
Channel(s) : 6 channels
Channel positions : Front: L C R, Side: L R, LFE
Sampling rate : 48.0 kHz
Frame rate : 31.250 FPS (1536 spf)
Bit depth : 16 bits
Compression mode : Lossy
Stream size : 313 MiB (10%)
Language : Russian
Service kind : Complete Main
Default : Yes
Forced : No
Audio #2
ID : 3
Format : AC-3
Format/Info : Audio Coding 3
Format settings, Endianness : Big
Codec ID : A_AC3
Duration : 1 h 37 min
Bit rate mode : Constant
Bit rate : 192 kb/s
Channel(s) : 2 channels
Channel positions : Front: L R
Sampling rate : 48.0 kHz
Frame rate : 31.250 FPS (1536 spf)
Bit depth : 16 bits
Compression mode : Lossy
Stream size : 134 MiB (4%)
Language : English
Service kind : Complete Main
Default : No
Forced : No
Text #1
ID : 4
Format : UTF-8
Codec ID : S_TEXT/UTF8
Codec ID/Info : UTF-8 Plain Text
Language : Russian
Default : No
Forced : No
Text #2
ID : 5
Format : UTF-8
Codec ID : S_TEXT/UTF8
Codec ID/Info : UTF-8 Plain Text
Language : English
Default : No
Forced : No
Menu
00:00:00.000 : en:An Angel
00:05:11.000 : en:Dining Out
00:11:58.000 : en:Mothers and Fathers
00:17:54.000 : en:Speaking French
00:26:55.000 : en:Blanca
00:32:51.000 : en:Drinking
00:38:04.000 : en:The Airport
00:43:58.000 : en:Visit Tony
00:49:31.000 : en:Letter to Papa
00:55:34.000 : en:A New Person
01:01:45.000 : en:Suicide Attempt
01:09:43.000 : en:Tony Adores London
01:12:08.000 : en:Mother and Son
01:18:15.000 : en:Backwards Writing
01:23:42.000 : en:Weight Lifted
01:29:12.000 : en:End Credits
[Профиль] [ЛС]
Кто просматривает тему:

Форум Тема Автор Размер
Chanson (Шансон) VA - Дикая Мята - 2015, MP3, VBR 192-320 kbps Magnat 1.06 GB
BBC BBC: Дикая Бразилия / Wild Brazil [серии 1-3 из 3] (Джо Стивенс / Joe Stevens, Адам Уайт /Adam White) [2014 г., Документальный, природа, флора, фауна, HDTVRip 720p] skorpionN 5.78 GB
BBC BBC: Дикая Патагония / Wild Patagonia [серии 1-3 из 3] (Tuppence Stone, Nick Smith-Baker) [2015 г., Документальный, фауна, флора, путешествия, HDTVRip-AVC 1080i] skorpionN 9.01 GB
BBC BBC: Дикая природа Новой Зеландии / Wild New Zealand (New Zealand: Earth's Mythical Islands) [серии 1-3 из 3] (Mark Flowers) [2016 г., Документальный, фауна, флора, путешествия, HDTVRip-AVC 720p] skorpionN 5.41 GB
BBC BBC: Дикая природа Новой Зеландии / Wild New Zealand (New Zealand: Earth's Mythical Islands)[серии 1-3 из 3] (Mark Flowers) [2016 г., Документальный, фауна, флора, путешествия, HDTVRip-AVC 1080i] skorpionN 9.14 GB
Nat Geo Wild Nat Geo Wild: Дикая Антарктика / Wild Antarctica (Jessica Connell) [2015 г., Документальный, научно-познавательный, HDTVRip-AVC 720p] skorpionN 1.59 GB
Nat Geo Wild Nat Geo Wild: Дикая Венеция / Wild Venice (Klaus T. Steindl) [2014 г., Документальный, природа, флора, фауна, HDTVRip 720p] skorpionN 1.59 GB
Nat Geo Wild Nat Geo Wild: Дикая Иберия / Wild Iberia [сезон 1 серии 1-4 из 4] (Альваро Мендоза / Alvaro Mendoza) [2014 г., Документальный, природа, флора, фауна, HDTVRip 720p] skorpionN 6.33 GB
Показать сообщения:    

Текущее время: Сегодня 00:12

Часовой пояс: GMT



Вы не можете начинать темы
Вы не можете отвечать на сообщения
Вы не можете редактировать свои сообщения
Вы не можете удалять свои сообщения
Вы не можете голосовать в опросах
Вы не можете прикреплять файлы к сообщениям
Вы не можете скачивать файлы