Дикая Венеция / Wild Venice (Клаус Штейндль / Klaus Steindl) [2014, Документальный, HDTVRip 720p]

 
Автор Сообщение

TorrentFilm ®

Пол:

Стаж: 2 года

Сообщений: 7741



Награды: Нет

Торрент-статистика

Создавать темы 01-Июл-2015 00:10

[Цитировать]

Дикая Венеция / Wild Venice
Год выпуска: 2014
Страна: Германия
Студия: ORF Universum
Жанр: Документальный
Продолжительность: 00:43:58
Перевод: Профессиональный (дублированный)
Доп. инфо о переводе: Студия "Велес" (Борис Хасанов)
Режиссер: Клаус Штейндль / Klaus Steindl
Описание: Коралловые рифы на востоке Венецианского залива - место обитания поразительного разнообразия видов, от морских анемонов до кальмаров-светлячков
Тип релиза: HDTVRip 720p
Контейнер: MKV
Видео: H.264, 1280x720 (16:9), 4600 Kbps, 25 fps, 0,2 bit\pixel
Аудио RUS: MP2, 192 Кбит/с, 48 kHz, 2 ch
Аудио ENG: MP2, 192 Кбит/с, 48 kHz, 2 ch

MediaInfo

GeneralUnique ID : 233713749053586750884042003412627524673 (0xAFD3A17A41927B09A5694747A9148C41)Complete name : D:\Видео\Флора и фауна\Wild Venice HDTVRip-720p.2014.mkvFormat : MatroskaFormat version : Version 4 / Version 2File size : 1.53 GiBDuration : 43mn 57sOverall bit rate : 4 977 KbpsEncoded date : UTC 2015-06-29 11:31:12Writing application : mkvmerge v7.9.0 ('Birds') 64bitWriting library : libebml v1.3.1 + libmatroska v1.4.2DURATION : 00:43:55.704000000NUMBER_OF_FRAMES : 109821NUMBER_OF_BYTES : 63256896_STATISTICS_WRITING_APP : mkvmerge v7.9.0 ('Birds') 64bit_STATISTICS_WRITING_DATE_UTC : 2015-06-29 11:31:12_STATISTICS_TAGS : BPS DURATION NUMBER_OF_FRAMES NUMBER_OF_BYTES
VideoID : 1Format : AVCFormat/Info : Advanced Video CodecFormat profile : High@L4.1Format settings, CABAC : YesFormat settings, ReFrames : 7 framesCodec ID : V_MPEG4/ISO/AVCDuration : 43mn 57sBit rate : 4 600 KbpsWidth : 1 280 pixelsHeight : 720 pixelsDisplay aspect ratio : 16:9Frame rate mode : ConstantFrame rate : 25.000 fpsColor space : YUVChroma subsampling : 4:2:0Bit depth : 8 bitsScan type : ProgressiveBits/(Pixel*Frame) : 0.200Stream size : 1.38 GiB (90%)Writing library : x264 core 146 r2538 121396cEncoding settings : cabac=1 / ref=7 / deblock=1:-1:-1 / analyse=0x3:0x113 / me=umh / subme=9 / psy=1 / psy_rd=1.05:0.20 / mixed_ref=1 / me_range=32 / chroma_me=1 / trellis=2 / 8x8dct=1 / cqm=0 / deadzone=21,11 / fast_pskip=1 / chroma_qp_offset=-3 / threads=6 / lookahead_threads=1 / sliced_threads=0 / nr=0 / decimate=1 / interlaced=0 / bluray_compat=0 / constrained_intra=0 / bframes=7 / b_pyramid=2 / b_adapt=2 / b_bias=0 / direct=3 / weightb=1 / open_gop=0 / weightp=2 / keyint=250 / keyint_min=25 / scenecut=40 / intra_refresh=0 / rc_lookahead=60 / rc=2pass / mbtree=1 / bitrate=4600 / ratetol=1.0 / qcomp=0.60 / qpmin=0 / qpmax=69 / qpstep=4 / cplxblur=20.0 / qblur=0.5 / vbv_maxrate=14000 / vbv_bufsize=14000 / nal_hrd=none / filler=0 / ip_ratio=1.40 / aq=1:1.00Default : YesForced : No
Audio #1ID : 2Format : MPEG AudioFormat version : Version 1Format profile : Layer 2Codec ID : A_MPEG/L2Codec ID/Hint : MP2Duration : 43mn 57sBit rate mode : ConstantBit rate : 192 KbpsChannel(s) : 2 channelsSampling rate : 48.0 KHzCompression mode : LossyStream size : 60.4 MiB (4%)Language : RussianDefault : YesForced : No
Audio #2ID : 3Format : MPEG AudioFormat version : Version 1Format profile : Layer 2Codec ID : A_MPEG/L2Codec ID/Hint : MP2Duration : 43mn 57sBit rate mode : ConstantBit rate : 192 KbpsChannel(s) : 2 channelsSampling rate : 48.0 KHzCompression mode : LossyStream size : 60.4 MiB (4%)Language : EnglishDefault : NoForced : No

Скриншоты

[Профиль] [ЛС]
Кто просматривает тему:

Форум Тема Автор Размер
Chanson (Шансон) VA - Дикая Мята - 2015, MP3, VBR 192-320 kbps Magnat 1.06 GB
BBC BBC: Дикая Бразилия / Wild Brazil [серии 1-3 из 3] (Джо Стивенс / Joe Stevens, Адам Уайт /Adam White) [2014 г., Документальный, природа, флора, фауна, HDTVRip 720p] skorpionN 5.78 GB
Nat Geo Wild Nat Geo Wild: Дикая Антарктика / Wild Antarctica (Jessica Connell) [2015 г., Документальный, научно-познавательный, HDTVRip-AVC 720p] skorpionN 1.59 GB
Nat Geo Wild Nat Geo Wild: Дикая Венеция / Wild Venice (Klaus T. Steindl) [2014 г., Документальный, природа, флора, фауна, HDTVRip 720p] skorpionN 1.59 GB
Nat Geo Wild Nat Geo Wild: Дикая Иберия / Wild Iberia [сезон 1 серии 1-4 из 4] (Альваро Мендоза / Alvaro Mendoza) [2014 г., Документальный, природа, флора, фауна, HDTVRip 720p] skorpionN 6.33 GB
Nat Geo Wild Nat Geo Wild: Дикая Колумбия / Wild Colombia [серии 1-3 из 3] (Andrew Moorwood) [2014 г., Документальный, природа, флора, фауна, HDTVRip 720p] skorpionN 4.78 GB
Nat Geo Wild Nat Geo Wild: Дикая Нижняя Калифорния / Wild Baja California (Michael Watchulonis) [2014 г., Документальный, флора, фауна, HDTVRip 720p] skorpionN 1.34 GB
Nat Geo Wild Nat Geo Wild: Дикая природа Индонезии / Wild Indonesia [ серии 1-3 из 3] (Charlie Lickock) [2014 г., Документальный, природа, флора, фауна, HDTVRip 720p] skorpionN 4.55 GB
Показать сообщения:    

Текущее время: Сегодня 13:04

Часовой пояс: GMT



Вы не можете начинать темы
Вы не можете отвечать на сообщения
Вы не можете редактировать свои сообщения
Вы не можете удалять свои сообщения
Вы не можете голосовать в опросах
Вы не можете прикреплять файлы к сообщениям
Вы не можете скачивать файлы