Диггеры (2016) WEB-DLRip | КПК | iTunes

 
Автор Сообщение

Шкипер ®

Пол:

Стаж: 1 год 7 месяцев

Сообщений: 52



Награды: Нет

Торрент-статистика

Создавать темы 22-Сен-2016 17:28

[Цитировать]

Информация о фильме
Название: Диггеры
Год выхода: 2016
Жанр: Ужасы
Режиссер: Тихон Корнев
В ролях: Роман Евдокимов, Анна Васильева, Алёна Савастова, Владимир Кузнецов, Андрей Лёвин, Мария Щекатурова, Евгений Коряковский
О фильме: Ночное метро. Несколько минут до закрытия. Последний поезд на полном ходу пролетает мимо конечной станции, увозя в темноту туннеля ничего не понимающих пассажиров. Официальные власти засекречивают информацию о бесследно исчезнувших людях. Через несколько дней, на поиски пропавших отправляются их друзья. Им предстоит вспомнить все жуткие городские легенды, которыми окутано московское подземелье…. И узнать, что реальность может быть намного страшнее…

Страна: Россия
Студия: Горад
Продолжительность: 01:19:19
Перевод: Не требуется | iTunes
Файл
Кодек: h264
Качество: WEB-DLRip| КПК
Видео: MPEG4 Video (H264), 496x208 (2.40:1), 24fps, 500kbps, 0.202 Bits/Pixel
Звук: AAC lc, 44100Hz, 2ch, 126kbps
Субтитры: Отсутствуют
Семпл

MI

General
Complete name : E:Изготовление рипаDyger1.2O16.O.WEB-DLRip.by shkiper.mp4
Format : MPEG-4
Format profile : Base Media
Codec ID : isom (isom/avc1)
File size : 357 MiB
Duration : 1h 19mn
Overall bit rate mode : Variable
Overall bit rate : 629 Kbps
Encoded date : UTC 2016-09-21 13:30:43
Tagged date : UTC 2016-09-21 13:30:43
Video
ID : 1
Format : AVC
Format/Info : Advanced Video Codec
Format profile : Baseline@L3
Format settings, CABAC : No
Format settings, ReFrames : 1 frame
Codec ID : avc1
Codec ID/Info : Advanced Video Coding
Duration : 1h 19mn
Bit rate : 500 Kbps
Maximum bit rate : 1 646 Kbps
Width : 496 pixels
Height : 208 pixels
Display aspect ratio : 2.40:1
Frame rate mode : Constant
Frame rate : 24.000 fps
Color space : YUV
Chroma subsampling : 4:2:0
Bit depth : 8 bits
Scan type : Progressive
Bits/(Pixel*Frame) : 0.202
Stream size : 284 MiB (80%)
Title : Imported with GPAC 0.4.6-DEV (internal rev. 5)
Writing library : x264 core 67 r1165M 6841c5e
Encoding settings : cabac=0 / ref=1 / deblock=1:0:0 / analyse=0x1:0 / me=hex / subme=6 / psy_rd=1.0:0.0 / mixed_ref=0 / me_range=16 / chroma_me=1 / trellis=0 / 8x8dct=0 / cqm=0 / deadzone=21,11 / chroma_qp_offset=-2 / threads=3 / nr=0 / decimate=1 / mbaff=0 / bframes=0 / keyint=250 / keyint_min=25 / scenecut=40 / rc=2pass / bitrate=500 / ratetol=1.0 / qcomp=0.60 / qpmin=10 / qpmax=51 / qpstep=4 / cplxblur=20.0 / qblur=0.5 / vbv_maxrate=1500 / vbv_bufsize=2000 / ip_ratio=1.40 / aq=1:1.00
Encoded date : UTC 2016-09-21 13:30:43
Tagged date : UTC 2016-09-21 13:31:18
Audio
ID : 2
Format : AAC
Format/Info : Advanced Audio Codec
Format profile : LC
Codec ID : 40
Duration : 1h 19mn
Bit rate mode : Variable
Bit rate : 127 Kbps
Maximum bit rate : 182 Kbps
Channel(s) : 2 channels
Channel positions : Front: L R
Sampling rate : 44.1 KHz
Frame rate : 43.066 fps (1024 spf)
Compression mode : Lossy
Stream size : 71.8 MiB (20%)
Title : Imported with GPAC 0.4.6-DEV (internal rev. 5)
Encoded date : UTC 2016-09-21 13:31:10
Tagged date : UTC 2016-09-21 13:31:18

Скриншоты

Релиз от:
[Профиль] [ЛС]

Создавать темы 22-Сен-2016 17:39 (спустя 10 минут)

Топик был перенесен из форума Фильмы для iOS,iPad, iPhone в форум Видео для КПК и Смартфонов
Russian Mafia
 
Показать сообщения:    

Текущее время: Сегодня 18:50

Часовой пояс: GMT



Вы не можете начинать темы
Вы не можете отвечать на сообщения
Вы не можете редактировать свои сообщения
Вы не можете удалять свои сообщения
Вы не можете голосовать в опросах
Вы не можете прикреплять файлы к сообщениям
Вы не можете скачивать файлы