Дивергент / Divergent (Нил Бёргер / Neil Burger) [2014, США, фантастика, боевик, триллер, приключения, BDRip] [US] Dub BD

 
Автор Сообщение

TorrentFilm ®

Пол:

Стаж: 2 года

Сообщений: 7741



Награды: Нет

Торрент-статистика

Создавать темы 06-Янв-2015 00:00

[Цитировать]

Дивергент / Divergent
«Ты опасен, если ты другой»
-Страна: США / Red Wagon Productions, Summit Entertainment
Жанр: фантастика, боевик, триллер, приключения
Год выпуска: 2014
Продолжительность: 02:19:40
Перевод: Профессиональный (дублированный) лицензия BD
Cубтитры: нет
Режиссёр: Нил Бёргер / Neil Burger
В ролях: Шейлин Вудли, Тео Джеймс, Джай Кортни, Кейт Уинслет, Зои Кравиц, Майлз Теллер, Эшли Джадд, Тони Голдуин, Мэгги Кью, Рэй Стивенсон.
Описание: Действие развивается на Земле в будущем, в деспотичном Чикаго. Все подростки, достигшие 16 лет, обязаны выбрать одну из пяти фракций и присоединиться к ней на всю оставшуюся жизнь. Каждая фракция представляет определенное качество: Искренность, Отречение, Бесстрашие, Дружелюбие и Эрудиция..-Рейтинг
imdb.com: 6.90 (206 510)
kinopoisk.ru: 6.839 (61 987)
MPAA: - детям до 13 лет просмотр не желателен-Сэмпл: http://multi-up.com/1005583-Качество видео: BDRip [Divergent.2014.BDRemux.1080p.ExKinoRay.mkv]
Формат видео: AVI
Видео: XviD build 65, 720x304 (2.37:1), 23.976 fps, ~1299 kbps avg, 0.247 bit/pixel
Аудио: 48 kHz, AC3 Dolby Digital, 2/0 (L,R) ch, ~192 kbps avg (Dub)
-

MediaInfo

Общее
Полное имя : D:\Divergent.2014.US-Transfer.Dub.BDRip.1,46Gb.XviD.AC3.avi
Формат : AVI
Формат/Информация : Audio Video Interleave
Размер файла : 1,46 Гбайт
Продолжительность : 2 ч. 19 м.
Общий поток : 1500 Кбит/сек
Название фильма : Divergent 2014 [US-Transfer]
Режиссёр : Neil Burger
Дата записи : 05.09.2014
Программа кодирования : VirtualDubModRus 1.5.10.2 (build 2542/release)
Библиотека кодирования : VirtualDubMod build 2542/release
Правообладатель : Rutracker.org
Примечание : MooN_WalkeR
Видео
Идентификатор : 0
Формат : MPEG-4 Visual
Профиль формата : Advanced Simple@L5
Параметр BVOP формата : 1
Параметр QPel формата : Нет
Параметр GMC формата : Без точки перехода
Параметр матрицы формата : Выборочная
Идентификатор кодека : XVID
Идентификатор кодека/Подсказка : XviD
Продолжительность : 2 ч. 19 м.
Битрейт : 1299 Кбит/сек
Ширина : 720 пикселей
Высота : 304 пикселя
Соотношение сторон : 2,35:1
Частота кадров : 23,976 кадра/сек
Цветовое пространство : YUV
Субдискретизация насыщенности : 4:2:0
Битовая глубина : 8 бит
Тип развёртки : Прогрессивная
Метод сжатия : С потерями
Бит/(Пиксели*Кадры) : 0.247
Размер потока : 1,27 Гбайт (87%)
Библиотека кодирования : XviD 65
Аудио
Идентификатор : 1
Формат : AC-3
Формат/Информация : Audio Coding 3
Расширение режима : CM (complete main)
Параметр Endianness формата : Big
Идентификатор кодека : 2000
Продолжительность : 2 ч. 19 м.
Вид битрейта : Постоянный
Битрейт : 192 Кбит/сек
Каналы : 2 канала
Расположение каналов : Front: L R
Частота : 48,0 КГц
Битовая глубина : 16 бит
Метод сжатия : С потерями
Размер потока : 192 Мбайт (13%)
Выравнивание : Разделение по промежуткам
Продолжительность промежутка : 42 мс. (1,00 видеокадр)
Время предзагрузки промежутка : 500 мс.
Заголовок : Dub
[Профиль] [ЛС]
Показать сообщения:    

Текущее время: Сегодня 14:26

Часовой пояс: GMT



Вы не можете начинать темы
Вы не можете отвечать на сообщения
Вы не можете редактировать свои сообщения
Вы не можете удалять свои сообщения
Вы не можете голосовать в опросах
Вы не можете прикреплять файлы к сообщениям
Вы не можете скачивать файлы