Дивергент / Divergent (2014) BDRip [720p]

 
Автор Сообщение

sergej644 ®

Пол:

Стаж: 4 года 11 месяцев

Сообщений: 6040

Откуда: Soviet Union



Награды: Нет

Торрент-статистика

Создавать темы 18-Авг-2014 21:58

[Цитировать]

-Дивергент / Divergent (2014) BDRip [720p]- Год выпуска: 2014
Производство: США / Red Wagon Productions, Summit Entertainment
Жанр: Фантастика, Боевик, Мелодрама, Приключения
Режиссер: Нил Бёргер
Продюсер: Люси Фишер, Пуйа Шахбазян, Дуглас Уик
Актеры: Шейлин Вудли, Тео Джеймс, Джай Кортни, Кейт Уинслет, Зои Кравиц, Майлз Теллер, Эшли Джадд, Тони Голдуин, Мэгги Кью, Рэй Стивенсон
Описание фильма:
Действие развивается на Земле в будущем, в деспотичном Чикаго. Все подростки, достигшие 16 лет, обязаны выбрать одну из пяти фракций и присоединиться к ней на всю оставшуюся жизнь. Каждая фракция представляет определенное качество: Искренность, Отречение, Бесстрашие, Дружелюбие и Эрудиция.
Перевод: Дублированный (Лицензия RUS)
Субтитры: Вшитые отключаемые
Язык субтитров: Русский, английский (Full, SDH, SDH-COLORED)

Дата мировой премьеры: 18 марта 2014
Дата российской премьеры: 10 апреля 2014, «Централ Партнершип»
Дата украинской премьеры: 10 апреля 2014, «Централ Партнершип», «Интерфильм»
Дата выхода DVD/Blu-Ray релиза: 19 августа 2014, «Lizard Cinema Trade»
Продолжительность: 02:19:40
Качество видео: BDRip [720p] (US Transfer)
Видеокодек: MPEG-4 AVC/H.264
Битрейт видео: ~4957 kbps
Размер кадра: 1280x534
Аудио #1: Русский: AC-3, 48.0 KHz, 6 ch, 640 Kbps, CBR - (Лицензия RUS)
Аудио #2: Английский: DTS, 48.0 KHz, 6 ch, 1510 Kbps, CBR - (Original)
Аудио #3: Английский: AC-3, 48.0 KHz, 2 ch, 192 Kbps, CBR - (Commentary with Director Neil Burger)
Аудио #4: Английский: AC-3, 48.0 KHz, 2 ch, 192 Kbps, CBR - (Commentary with Producers Douglas Wick and Lucy Fisher)
Аудио #5: Английский: AC-3, 48.0 KHz, 2 ch, 224 Kbps, CBR - (Descriptive)
Аудио #6: Английский: AC-3, 48.0 KHz, 2 ch, 224 Kbps, CBR - (Optimized for Late-Night)
Сэмпл: Скачать

MediaInfo:

Общее
Уникальный идентификатор : 185291196618744875535748675966352448448 (0x8B65C95181A0E05F88A65580D92B5BC0)
Полное имя : E:\Фильмы\Divergent.2014.BDRip.720p.mkv
Формат : Matroska
Версия формата : Version 4 / Version 2
Размер файла : 7,75 Гбайт
Продолжительность : 2 ч. 19 м.
Общий поток : 7940 Кбит/сек
Дата кодирования : UTC 2014-08-17 06:14:04
Программа кодирования : mkvmerge v7.1.0 ('Good Love') 64bit built on Jul 27 2014 13:06:55
Библиотека кодирования : libebml v1.3.0 + libmatroska v1.4.1
DURATION : 02:19:40.448000000
NUMBER_OF_FRAMES : 261889
NUMBER_OF_BYTES : 670435840
_STATISTICS_WRITING_APP : mkvmerge v7.1.0 ('Good Love') 64bit built on Jul 27 2014 13:06:55
_STATISTICS_WRITING_DATE_UTC : 2014-08-17 06:14:04
_STATISTICS_TAGS : BPS DURATION NUMBER_OF_FRAMES NUMBER_OF_BYTES
Attachment : Yes
Видео
Идентификатор : 1
Формат : AVC
Формат/Информация : Advanced Video Codec
Профиль формата : [url=mailto:High@L4.1]High@L4.1[/url]
Параметр CABAC формата : Да
Параметр ReFrames формата : 11 кадров
Идентификатор кодека : V_MPEG4/ISO/AVC
Продолжительность : 2 ч. 19 м.
Битрейт : 4957 Кбит/сек
Ширина : 1280 пикселей
Высота : 534 пикселя
Соотношение сторон : 2,40:1
Режим частоты кадров : Постоянный
Частота кадров : 23,976 кадра/сек
Цветовое пространство : YUV
Субдискретизация насыщенности : 4:2:0
Битовая глубина : 8 бит
Тип развёртки : Прогрессивная
Бит/(Пиксели*Кадры) : 0.302
Размер потока : 4,68 Гбайт (60%)
Библиотека кодирования : x264 core 138 r2358 9e941d1
Настройки программы : cabac=1 / ref=11 / deblock=1:-3:-3 / analyse=0x3:0x113 / me=umh / subme=11 / psy=1 / psy_rd=1.00:0.05 / mixed_ref=1 / me_range=32 / chroma_me=1 / trellis=2 / 8x8dct=1 / cqm=0 / deadzone=21,11 / fast_pskip=0 / chroma_qp_offset=-3 / threads=12 / lookahead_threads=2 / sliced_threads=0 / nr=0 / decimate=1 / interlaced=0 / bluray_compat=0 / constrained_intra=0 / bframes=8 / b_pyramid=2 / b_adapt=2 / b_bias=0 / direct=3 / weightb=1 / open_gop=0 / weightp=2 / keyint=240 / keyint_min=23 / scenecut=60 / intra_refresh=0 / rc=2pass / mbtree=0 / bitrate=4957 / ratetol=1.0 / qcomp=0.70 / qpmin=0 / qpmax=51 / qpstep=4 / cplxblur=20.0 / qblur=0.5 / ip_ratio=1.40 / pb_ratio=1.30 / aq=2:0.90
Язык : English
Default : Да
Forced : Нет
DURATION : 02:19:40.414000000
NUMBER_OF_FRAMES : 200929
NUMBER_OF_BYTES : 5190454988
_STATISTICS_WRITING_APP : mkvmerge v7.1.0 ('Good Love') 64bit built on Jul 27 2014 13:06:55
_STATISTICS_WRITING_DATE_UTC : 2014-08-17 06:14:04
_STATISTICS_TAGS : BPS DURATION NUMBER_OF_FRAMES NUMBER_OF_BYTES
Аудио #1
Идентификатор : 2
Формат : AC-3
Формат/Информация : Audio Coding 3
Расширение режима : CM (complete main)
Параметр Endianness формата : Big
Идентификатор кодека : A_AC3
Продолжительность : 2 ч. 19 м.
Вид битрейта : Постоянный
Битрейт : 640 Кбит/сек
Каналы : 6 каналов
Расположение каналов : Front: L C R, Side: L R, LFE
Частота : 48,0 КГц
Битовая глубина : 16 бит
Метод сжатия : С потерями
Размер потока : 639 Мбайт (8%)
Заголовок : AC3 / 5.1 / 640 Kbps / Licence RUS
Язык : Russian
Default : Да
Forced : Нет
Аудио #2
Идентификатор : 3
Формат : DTS
Формат/Информация : Digital Theater Systems
Режим : 16
Параметр Endianness формата : Big
Идентификатор кодека : A_DTS
Продолжительность : 2 ч. 19 м.
Вид битрейта : Постоянный
Битрейт : 1509 Кбит/сек
Каналы : 6 каналов
Расположение каналов : Front: L C R, Side: L R, LFE
Частота : 48,0 КГц
Битовая глубина : 24 бит
Метод сжатия : С потерями
Размер потока : 1,47 Гбайт (19%)
Заголовок : DTS / 5.1 / 1510 Kbps / Original
Язык : English
Default : Нет
Forced : Нет
Аудио #3
Идентификатор : 4
Формат : AC-3
Формат/Информация : Audio Coding 3
Расширение режима : CM (complete main)
Параметр Endianness формата : Big
Идентификатор кодека : A_AC3
Продолжительность : 2 ч. 19 м.
Вид битрейта : Постоянный
Битрейт : 192 Кбит/сек
Каналы : 2 канала
Расположение каналов : Front: L R
Частота : 48,0 КГц
Битовая глубина : 16 бит
Метод сжатия : С потерями
Размер потока : 192 Мбайт (2%)
Заголовок : AC3 / 2.0 / 192 Kbps / Commentary with Director Neil Burger
Язык : English
Default : Нет
Forced : Нет
Аудио #4
Идентификатор : 5
Формат : AC-3
Формат/Информация : Audio Coding 3
Расширение режима : CM (complete main)
Параметр Endianness формата : Big
Идентификатор кодека : A_AC3
Продолжительность : 2 ч. 19 м.
Вид битрейта : Постоянный
Битрейт : 192 Кбит/сек
Каналы : 2 канала
Расположение каналов : Front: L R
Частота : 48,0 КГц
Битовая глубина : 16 бит
Метод сжатия : С потерями
Размер потока : 192 Мбайт (2%)
Заголовок : AC3 / 2.0 / 192 Kbps / Commentary with Producers Douglas Wick and Lucy Fisher
Язык : English
Default : Нет
Forced : Нет
Аудио #5
Идентификатор : 6
Формат : AC-3
Формат/Информация : Audio Coding 3
Профиль формата : Dolby Digital
Расширение режима : CM (complete main)
Параметр Endianness формата : Big
Идентификатор кодека : A_AC3
Продолжительность : 2 ч. 19 м.
Вид битрейта : Постоянный
Битрейт : 224 Кбит/сек
Каналы : 2 канала
Расположение каналов : Front: L R
Частота : 48,0 КГц
Битовая глубина : 16 бит
Метод сжатия : С потерями
Размер потока : 224 Мбайт (3%)
Заголовок : AC3 / 2.0 / 224 Kbps / Descriptive
Язык : English
Default : Нет
Forced : Нет
Аудио #6
Идентификатор : 7
Формат : AC-3
Формат/Информация : Audio Coding 3
Профиль формата : Dolby Digital
Расширение режима : CM (complete main)
Параметр Endianness формата : Big
Идентификатор кодека : A_AC3
Продолжительность : 2 ч. 19 м.
Вид битрейта : Постоянный
Битрейт : 224 Кбит/сек
Каналы : 2 канала
Расположение каналов : Front: L R
Частота : 48,0 КГц
Битовая глубина : 16 бит
Метод сжатия : С потерями
Размер потока : 224 Мбайт (3%)
Заголовок : AC3 / 2.0 / 224 Kbps / Optimized for Late-Night
Язык : English
Default : Нет
Forced : Нет
Текст #1
Идентификатор : 8
Формат : UTF-8
Идентификатор кодека : S_TEXT/UTF8
Идентификатор кодека/Информация : UTF-8 Plain Text
Заголовок : Full
Язык : Russian
Default : Нет
Forced : Нет
Текст #2
Идентификатор : 9
Формат : UTF-8
Идентификатор кодека : S_TEXT/UTF8
Идентификатор кодека/Информация : UTF-8 Plain Text
Заголовок : Full
Язык : English
Default : Нет
Forced : Нет
Текст #3
Идентификатор : 10
Формат : UTF-8
Идентификатор кодека : S_TEXT/UTF8
Идентификатор кодека/Информация : UTF-8 Plain Text
Заголовок : SDH
Язык : English
Default : Нет
Forced : Нет
Текст #4
Идентификатор : 11
Формат : UTF-8
Идентификатор кодека : S_TEXT/UTF8
Идентификатор кодека/Информация : UTF-8 Plain Text
Заголовок : SDH-COLORED
Язык : English
Default : Нет
Forced : Нет
Меню
00:00:00.000 : en:00:00:00.000
00:07:57.475 : en:00:07:57.475
00:15:29.595 : en:00:15:29.595
00:23:31.034 : en:00:23:31.034
00:33:56.616 : en:00:33:56.616
00:38:52.954 : en:00:38:52.954
00:44:24.327 : en:00:44:24.327
00:53:37.505 : en:00:53:37.505
01:00:02.681 : en:01:00:02.681
01:06:32.070 : en:01:06:32.070
01:13:19.603 : en:01:13:19.603
01:20:08.136 : en:01:20:08.136
01:28:41.439 : en:01:28:41.439
01:35:54.957 : en:01:35:54.957
01:46:19.372 : en:01:46:19.372
01:57:54.692 : en:01:57:54.692

Avdump:

File: E:\Фильмы\Divergent.2014.BDRip.720p.mkv
Duration: 02:19:40 (8380.45)
Track #1: video
lang: Unknown (1)
codc: V_MPEG4/ISO/AVC -> H264/AVC (22)
reso: 1280x534 -> Unknown (aka not common)
fram: 23.976 fps
rate: 4955 kbps (4954.87)
dura: 02:19:40 (8380.37)
size: 4.83 GB (5190454988)
Track #2: audio (AC3 / 5.1 / 640 Kbps / Licence RUS)
lang: rus -> Russian (15)
codc: A_AC3 -> AC3 (2)
chan: 6 -> 5.1 Surround
samp: 48000 Hz
rate: 640 kbps (640.05)
dura: 02:19:40 (8380.29)
size: 639.41 MB (670470549)
Track #3: audio (DTS / 5.1 / 1510 Kbps / Original)
lang: Unknown (1)
codc: A_DTS -> DTS (13)
chan: 6 -> 5.1 Surround
samp: 48000 Hz
rate: 1509 kbps (1509.10)
dura: 02:19:40 (8380.37)
size: 1.47 GB (1580849947)
Track #4: audio (AC3 / 2.0 / 192 Kbps / Commentary with Director Neil Burger)
lang: Unknown (1)
codc: A_AC3 -> AC3 (2)
chan: 2 -> Stereo
samp: 48000 Hz
rate: 192 kbps (192.03)
dura: 02:19:40 (8380.29)
size: 191.84 MB (201163114)
Track #5: audio (AC3 / 2.0 / 192 Kbps / Commentary with Producers Douglas Wick and Lucy Fisher)
lang: Unknown (1)
codc: A_AC3 -> AC3 (2)
chan: 2 -> Stereo
samp: 48000 Hz
rate: 192 kbps (192.03)
dura: 02:19:40 (8380.29)
size: 191.84 MB (201162342)
Track #6: audio (AC3 / 2.0 / 224 Kbps / Descriptive)
lang: Unknown (1)
codc: A_AC3 -> AC3 (2)
chan: 2 -> Stereo
samp: 48000 Hz
rate: 224 kbps (224.03)
dura: 02:19:40 (8380.29)
size: 223.81 MB (234684537)
Track #7: audio (AC3 / 2.0 / 224 Kbps / Optimized for Late-Night)
lang: Unknown (1)
codc: A_AC3 -> AC3 (2)
chan: 2 -> Stereo
samp: 48000 Hz
rate: 224 kbps (224.03)
dura: 02:19:40 (8380.29)
size: 223.81 MB (234684540)
Track #8: subtitles (Full)
lang: rus -> Russian (15)
type: S_TEXT/UTF8 -> SRT (3)
size: 59.64 KB (61076)
Track #9: subtitles (Full)
lang: Unknown (1)
type: S_TEXT/UTF8 -> SRT (3)
size: 36.20 KB (37070)
Track #10: subtitles (SDH)
lang: Unknown (1)
type: S_TEXT/UTF8 -> SRT (3)
size: 41.86 KB (42862)
Track #11: subtitles (SDH-COLORED)
lang: Unknown (1)
type: S_TEXT/UTF8 -> SRT (3)
size: 56.30 KB (57654)
Sizes: (check sanity)
disk: 7.75 GB (8317891620)
atts: 364.21 KB (372953)
trac: 3.74 GB (4018701383) [based on track size]
bitr: 7.74 GB (8313484588) [based on bitrate]
tdif: 4.00 GB (4298817284) 51.68%
bdif: 3.85 MB (4034078) 0.04%
Скриншоты:
--
[Профиль] [ЛС]
Показать сообщения:    

Текущее время: Сегодня 00:48

Часовой пояс: GMT



Вы не можете начинать темы
Вы не можете отвечать на сообщения
Вы не можете редактировать свои сообщения
Вы не можете удалять свои сообщения
Вы не можете голосовать в опросах
Вы не можете прикреплять файлы к сообщениям
Вы не можете скачивать файлы