Дивергент / Divergent (Нил Бёргер / Neil Burger) [2014, США, Фантастика, боевик, приключения, WEB-DLRip] Dub (iTunes)

 
Автор Сообщение

reversefile ®

Пол:

Стаж: 4 года 5 месяцев

Сообщений: 842

Откуда: ReverseFile.org



Награды: Нет

Торрент-статистика

Создавать темы 25-Июл-2014 01:16

[Цитировать]

Дивергент / Divergent
Страна: США
Жанр: Фантастика, боевик, приключения
Год выпуска: 2014
Продолжительность: 02:13:56
Перевод: Профессиональный (дублированный) iTunes
Cубтитры: нет
Режиссер: Нил Бёргер / Neil Burger
В ролях: Шейлин Вудли, Тео Джеймс, Эшли Джадд, Джай Кортни, Рэй Стивенсон, Зои Кравиц, Майлз Теллер, Тони Голдуин, Мэгги Кью, Кейт Уинслет
Описание: Действие развивается на Земле в будущем, в деспотичном Чикаго. Все подростки, достигшие 16 лет, обязаны выбрать одну из пяти фракций и присоединиться к ней на всю оставшуюся жизнь. Каждая фракция представляет определенное качество: Искренность, Отречение, Бесстрашие, Дружелюбие и Эрудиция. Качество видео: WEB-DLRip
Формат видео: AVI
Видео: MPEG4, XviD, 720x400 (16:9), 25.000 fps, 1 066 Kbps (0.148 bit/pixel)
Аудио: AC-3, 48.0 KHz, 6 ch, 384 Kbps, CBR

MediaInfo

Общее
Полное имя : K:\D1vergent.2014.D.WEB-DLRip.1400Mb.avi
Формат : AVI
Формат/Информация : Audio Video Interleave
Размер файла : 1,37 Гбайт
Продолжительность : 2 ч. 13 м.
Общий поток : 1459 Кбит/сек
Программа кодирования : VirtualDubMod 1.5.10.3 | www.virtualdub-fr.org || (build 2550/release)
Библиотека кодирования : VirtualDubMod build 2550/release
Видео
Идентификатор : 0
Формат : MPEG-4 Visual
Профиль формата : Advanced Simple@L5
Параметр BVOP формата : 2
Параметр QPel формата : Нет
Параметр GMC формата : Без точки перехода
Параметр матрицы формата : Default (H.263)
Идентификатор кодека : XVID
Идентификатор кодека/Подсказка : XviD
Продолжительность : 2 ч. 13 м.
Битрейт : 1066 Кбит/сек
Ширина : 720 пикселей
Высота : 400 пикселей
Соотношение сторон : 16:9
Частота кадров : 25,000 кадров/сек
Цветовое пространство : YUV
Субдискретизация насыщенности : 4:2:0
Битовая глубина : 8 бит
Тип развёртки : Прогрессивная
Метод сжатия : С потерями
Бит/(Пиксели*Кадры) : 0.148
Размер потока : 1021 Мбайт (73%)
Библиотека кодирования : XviD 1.2.1 (UTC 2008-12-04)
Аудио
Идентификатор : 1
Формат : AC-3
Формат/Информация : Audio Coding 3
Расширение режима : CM (complete main)
Параметр Endianness формата : Big
Идентификатор кодека : 2000
Продолжительность : 2 ч. 13 м.
Вид битрейта : Постоянный
Битрейт : 384 Кбит/сек
Каналы : 6 каналов
Расположение каналов : Front: L C R, Side: L R, LFE
Частота : 48,0 КГц
Битовая глубина : 16 бит
Метод сжатия : С потерями
Размер потока : 368 Мбайт (26%)
Выравнивание : Разделение по промежуткам
Продолжительность промежутка : 40 мс. (1,00 видеокадр)
Время предзагрузки промежутка : 500 мс.

Скриншоты

[Профиль] [ЛС]
Показать сообщения:    

Текущее время: Сегодня 06:15

Часовой пояс: GMT



Вы не можете начинать темы
Вы не можете отвечать на сообщения
Вы не можете редактировать свои сообщения
Вы не можете удалять свои сообщения
Вы не можете голосовать в опросах
Вы не можете прикреплять файлы к сообщениям
Вы не можете скачивать файлы