Дивергент, глава 3: За стеной / Allegiant (2016) BDRemux 1080p | Лицензия

 
Автор Сообщение

достали все ®

Пол:

Стаж: 1 год 8 месяцев

Сообщений: 6613



Награды: 12 (Подробнее)

Top Releaser 2 (Количество: 1) Top Releaser 3 (Количество: 1) За внесенный вклад в развитие сайта (Количество: 1)
Торрент-статистика

Создавать темы 03-Июл-2016 12:46

[Цитировать]

Информация о фильме
Название: Дивергент, глава 3: За стеной
Оригинальное название: Allegiant
Год выхода: 2016
Жанр: Фантастика, боевик, приключения
Режиссер: Роберт Швентке
В ролях: Шэйлин Вудли, Тео Джеймс, Энсел Элгорт, Зои Кравиц, Майлз Теллер, Джефф Дэниелс, Наоми Уоттс, Мэгги Кью, Билл Скарсгард, Кейнан Лонсдейл, Надиа Хилкер, Октавия Спенсер, Дэниэл Дэ Ким, Джонни Уэстон, Энди Бин, Рэй Стивенсон, Мекхай Файфер, Джозеф Дэвид-Джонс, Эшли Джадд, Джош Давендек
О фильме:
Джанин мертва и власть над Чикаго от Эрудитов переходит к афракционерам во главе с Эвелин. Они начинают разрушать фракционную систему и не выпускают никого за пределы города. Это вызывает волну недовольства и контрреволюционные настроения. Часть людей объединяется вокруг Джоанны Рейес, называя себя эллигентами. Их группа готова бороться за возвращение фракций. Вооруженное противостояние неизбежно. Между тем, Трис и Фор отправляются в неведомый мир за городской стеной, чтобы найти отцов-основателей нового мирового порядка и узнать шокирующую правду.

Страна: США
Студия: Lionsgate, Red Wagon Productions, Summit Entertainment
Продолжительность: 02:00:33
Перевод: Дублированный | Лицензия Централ Партнершип
Файл
Кодек: x264
Качество: BDRemux 1080p
Видео: 1920x1080, 34.2 Mbit/s, 23.976 fps
Звук:
Аудио #01: 48 kHz, DTS-HD MA, 5.1, 2094 Kbps | Дублированный, лицензия Централ Партнершип |
Аудио #02: 48 kHz, TrueHD, 7.1, 4793 kbps | Оригинал |
Субтитры: Английские
Релиз от: Автор релиза:

MI

General
Unique ID : 173027187243477789455490429086695447003 (0x822BD2F8E8635FBA98EE195D86DC59DB)
Complete name : F:VideoAllegiant.2016.D.BDREMUX.1080p.ExKinoRay.mkv
Format : Matroska
Format version : Version 4 / Version 2
File size : 34.6 GiB
Duration : 2h 0mn
Overall bit rate mode : Variable
Overall bit rate : 41.1 Mbps
Movie name : Allegiant.2016.D.BDREMUX.1080p.ExKinoRay
Encoded date : UTC 2016-07-03 09:45:32
Writing application : mkvmerge v8.3.0 ('Over the Horizon') 64bit
Writing library : libebml v1.3.1 + libmatroska v1.4.2
Video
ID : 1
Format : AVC
Format/Info : Advanced Video Codec
Format profile : High@L4.1
Format settings, CABAC : Yes
Format settings, ReFrames : 4 frames
Codec ID : V_MPEG4/ISO/AVC
Duration : 2h 0mn
Bit rate mode : Variable
Bit rate : 34.2 Mbps
Maximum bit rate : 36.5 Mbps
Width : 1 920 pixels
Height : 1 080 pixels
Display aspect ratio : 16:9
Frame rate mode : Constant
Frame rate : 23.976 (23976/1000) fps
Original frame rate : 23.976 (24000/1001) fps
Color space : YUV
Chroma subsampling : 4:2:0
Bit depth : 8 bits
Scan type : Progressive
Bits/(Pixel*Frame) : 0.687
Stream size : 28.8 GiB (83%)
Language : English
Default : Yes
Forced : No
Audio #1
ID : 2
Format : DTS
Format/Info : Digital Theater Systems
Codec ID : A_DTS
Duration : 2h 0mn
Bit rate : 2 094 Kbps
Channel(s) : 6 channels
Sampling rate : 48.0 KHz
Frame rate : 93.750 fps (512 spf)
Compression mode : Lossy
Stream size : 1.76 GiB (5%)
Title : DUB [License]
Language : Russian
Default : Yes
Forced : No
Audio #2
ID : 3
Format : Atmos / TrueHD
Codec ID : A_TRUEHD
Duration : 2h 0mn
Bit rate mode : Variable
Bit rate : 4 793 Kbps
Maximum bit rate : 6 219 Kbps
Channel(s) : Object Based / 8 channels
Channel positions : Object Based / Front: L C R, Side: L R, Back: L R, LFE
Sampling rate : / 48.0 KHz
Frame rate : 1 200.000 fps (40 spf)
Compression mode : Lossless
Delay relative to video : 1ms
Stream size : 4.04 GiB (12%)
Title : Original
Language : English
Default : No
Forced : No
Text #1
ID : 4
Format : UTF-8
Codec ID : S_TEXT/UTF8
Codec ID/Info : UTF-8 Plain Text
Duration : 1h 48mn
Bit rate : 45 bps
Count of elements : 1173
Stream size : 36.3 KiB (0%)
Title : Full
Language : English
Default : No
Forced : No
Text #2
ID : 5
Format : UTF-8
Codec ID : S_TEXT/UTF8
Codec ID/Info : UTF-8 Plain Text
Duration : 1h 49mn
Bit rate : 50 bps
Count of elements : 1312
Stream size : 40.3 KiB (0%)
Title : SDH
Language : English
Default : No
Forced : No
Menu
00:00:00.000 : en:Chapter 1
00:09:46.336 : en:Chapter 2
00:16:54.305 : en:Chapter 3
00:25:52.092 : en:Chapter 4
00:32:45.213 : en:Chapter 5
00:37:26.202 : en:Chapter 6
00:45:49.538 : en:Chapter 7
00:53:31.458 : en:Chapter 8
00:58:18.245 : en:Chapter 9
01:07:21.162 : en:Chapter 10
01:13:46.714 : en:Chapter 11
01:19:51.036 : en:Chapter 12
01:26:40.237 : en:Chapter 13
01:33:12.128 : en:Chapter 14
01:40:24.060 : en:Chapter 15
01:46:18.872 : en:Chapter 16

Скриншоты

[Профиль] [ЛС]
Показать сообщения:    

Текущее время: Сегодня 04:31

Часовой пояс: GMT



Вы не можете начинать темы
Вы не можете отвечать на сообщения
Вы не можете редактировать свои сообщения
Вы не можете удалять свои сообщения
Вы не можете голосовать в опросах
Вы не можете прикреплять файлы к сообщениям
Вы не можете скачивать файлы