Дивергент, глава 2: Инсургент / Insurgent (Роберт Швентке / Robert Schwentke) [2015, США, Фантастика, триллер, приключения, BDRip-AVC] Dub + Sub Rus,Eng + Original Eng

 
Автор Сообщение

TorrentFilm ®

Пол:

Стаж: 2 года

Сообщений: 7741



Награды: Нет

Торрент-статистика

Создавать темы 12-Окт-2015 00:11

[Цитировать]

Дивергент, глава 2: ИнсургентInsurgent«В этом мире пора что-то менять»

Страна: США
Жанр: Фантастика, триллер, приключения
Год выпуска: 2015
Продолжительность: 01:59:00
Перевод: Профессиональный (дублированный) Bluray
Cубтитры: русские,английские
Оригинальная аудиодорожка: английский
Режиссер: Роберт Швентке / Robert Schwentke
В ролях: Шейлин Вудли, Тео Джеймс, Кейт Уинслет, Джай Кортни, Энсел Элгорт, Майлз Теллер, Зои Кравиц, Мекхай Файфер, Наоми Уоттс, Октавия Спенсер
Описание: В новой главе антиутопии об обществе, где все расставлено по полочкам, а любая индивидуальность подлежит искоренению, Трис должна найти способ борьбы со страшной системой, уничтожающей ее близких. Кто из них на очереди? Она узнает все больше страшных подробностей, стоящих за кажущимся порядком, и уже не может не видеть, что в ее мире пора что-то менять. Но главное в этой борьбе – справиться с расколом, который враг порождает в ее собственной душе.
Доп. информация:
Релиз группы:
Качество видео: BDRip-AVC | Дивергент, глава 2: Инсургент / Insurgent (2015) Blu-ray 2D Disc [USA Transfer] -BLUEBIRD
Формат видео: MKV
Видео: 1152x480 (2:40:1), 23,976 fps, 3608 Кbps, 0.272 bit/pixe
Аудио: 48 kHz, AC3 Dolby Digital, 3/2 (L,C,R,l,r) + LFE ch, ~448.00 kbps avg DUB
Аудио 2: 48 kHz, AC3 Dolby Digital, 3/2 (L,C,R,l,r) + LFE ch, ~448.00 kbps avg ENG
Формат субтитров: softsub (SRT)
Доп. информация о субтитрах: отключаемые

MediaInfo

General
Unique ID : 199616753873137403054948270372030513716 (0x962CC9D285B4C1B5B5B885A869E00234)
Complete name : D:\Мои рипы\Дивергент 2\Insurgent by_IVAN@190282.mkv
Format : Matroska
Format version : Version 4 / Version 2
File size : 3.82 GiB
Duration : 1h 59mn
Overall bit rate : 4 595 Kbps
Encoded date : UTC 2015-10-10 17:55:01
Writing application : mkvmerge v8.4.0 ('A better way to fly') 64bit
Writing library : libebml v1.3.1 + libmatroska v1.4.2
Attachements : cover.jpg / 229500.jpg
DURATION : 01:47:04.751000000
NUMBER_OF_FRAMES : 1180
NUMBER_OF_BYTES : 36010
_STATISTICS_WRITING_APP : mkvmerge v8.4.0 ('A better way to fly') 64bit
_STATISTICS_WRITING_DATE_UT : 2015-10-10 17:55:01
_STATISTICS_TAGS : BPS DURATION NUMBER_OF_FRAMES NUMBER_OF_BYTES
Video
ID : 1
Format : AVC
Format/Info : Advanced Video Codec
Format profile : High@L4.1
Format settings, CABAC : Yes
Format settings, ReFrames : 12 frames
Codec ID : V_MPEG4/ISO/AVC
Duration : 1h 59mn
Bit rate : 3 608 Kbps
Width : 1 152 pixels
Height : 480 pixels
Display aspect ratio : 2.40:1
Frame rate mode : Constant
Frame rate : 23.976 fps
Color space : YUV
Chroma subsampling : 4:2:0
Bit depth : 8 bits
Scan type : Progressive
Bits/(Pixel*Frame) : 0.272
Stream size : 3.00 GiB (79%)
Title : Insurgent by_IVAN@190282
Writing library : x264 core 148 r2579kMod 73ae2d1
Encoding settings : cabac=1 / ref=12 / deblock=1:-3:-3 / analyse=0x3:0x133 / me=umh / subme=11 / psy=1 / fade_compensate=0.00 / psy_rd=1.00:0.05 / mixed_ref=1 / me_range=48 / chroma_me=1 / trellis=2 / 8x8dct=1 / cqm=0 / deadzone=21,11 / fast_pskip=0 / chroma_qp_offset=-3 / threads=6 / lookahead_threads=6 / sliced_threads=0 / nr=0 / decimate=1 / interlaced=0 / bluray_compat=0 / constrained_intra=0 / fgo=0 / bframes=16 / b_pyramid=2 / b_adapt=2 / b_bias=0 / direct=3 / weightb=1 / open_gop=0 / weightp=2 / keyint=240 / keyint_min=23 / scenecut=40 / intra_refresh=0 / rc_lookahead=60 / rc=crf / mbtree=0 / crf=17.2000 / qcomp=0.60 / qpmin=0 / qpmax=69 / qpstep=4 / vbv_maxrate=50000 / vbv_bufsize=62500 / crf_max=0.0 / nal_hrd=none / filler=0 / ip_ratio=1.40 / pb_ratio=1.30 / aq=2:1.80
Language : English
Default : Yes
Forced : No
Color range : Limited
Color primaries : BT.709
Transfer characteristics : BT.709
Matrix coefficients : BT.709
DURATION : 01:59:00.342000000
NUMBER_OF_FRAMES : 171197
NUMBER_OF_BYTES : 3299738998
_STATISTICS_WRITING_APP : mkvmerge v8.4.0 ('A better way to fly') 64bit
_STATISTICS_WRITING_DATE_UT : 2015-10-10 17:55:01
_STATISTICS_TAGS : BPS DURATION NUMBER_OF_FRAMES NUMBER_OF_BYTES
Audio #1
ID : 2
Format : AC-3
Format/Info : Audio Coding 3
Mode extension : CM (complete main)
Format settings, Endianness : Big
Codec ID : A_AC3
Duration : 1h 59mn
Bit rate mode : Constant
Bit rate : 448 Kbps
Channel(s) : 6 channels
Channel positions : Front: L C R, Side: L R, LFE
Sampling rate : 48.0 KHz
Compression mode : Lossy
Stream size : 381 MiB (10%)
Title : Dub
Language : Russian
Default : Yes
Forced : No
Audio #2
ID : 3
Format : AC-3
Format/Info : Audio Coding 3
Mode extension : CM (complete main)
Format settings, Endianness : Big
Codec ID : A_AC3
Duration : 1h 59mn
Bit rate mode : Constant
Bit rate : 448 Kbps
Channel(s) : 6 channels
Channel positions : Front: L C R, Side: L R, LFE
Sampling rate : 48.0 KHz
Compression mode : Lossy
Stream size : 381 MiB (10%)
Title : Eng
Language : English
Default : No
Forced : No
Text #1
ID : 4
Format : UTF-8
Codec ID : S_TEXT/UTF8
Codec ID/Info : UTF-8 Plain Text
Title : Rus
Language : Russian
Default : No
Forced : No
Text #2
ID : 5
Format : UTF-8
Codec ID : S_TEXT/UTF8
Codec ID/Info : UTF-8 Plain Text
Title : Eng
Language : English
Default : No
Forced : No
Menu
00:00:00.000 : en:Chapter 1
00:07:33.411 : en:Chapter 2
00:12:00.302 : en:Chapter 3
00:12:59.445 : en:Chapter 4
00:15:55.370 : en:Chapter 5
00:20:56.922 : en:Chapter 6
00:23:15.434 : en:Chapter 7
00:25:52.675 : en:Chapter 8
00:29:59.255 : en:Chapter 9
00:38:14.041 : en:Chapter 10
00:46:43.842 : en:Chapter 11
00:49:46.315 : en:Chapter 12
00:53:19.528 : en:Chapter 13
00:55:10.222 : en:Chapter 14
00:58:07.858 : en:Chapter 15
01:08:42.326 : en:Chapter 16
01:12:22.337 : en:Chapter 17
01:15:45.707 : en:Chapter 18
01:19:10.162 : en:Chapter 19
01:22:46.836 : en:Chapter 20
01:25:09.686 : en:Chapter 21
01:28:07.738 : en:Chapter 22
01:31:15.552 : en:Chapter 23
01:36:02.756 : en:Chapter 24
01:37:35.890 : en:Chapter 25
01:40:35.404 : en:Chapter 26
01:45:16.518 : en:Chapter 27
01:48:44.475 : en:Chapter 28
01:50:31.750 : en:Chapter 29
01:52:36.541 : en:Chapter 30

x264 log

VIDEO ENCODING
x264 [info]: frame I:1243 Avg QP:15.03 size: 84663 PSNR Mean Y:48.70 U:52.60 V:54.47 Avg:49.65 Global:47.81
x264 [info]: frame P:43295 Avg QP:17.11 size: 35339 PSNR Mean Y:46.85 U:51.36 V:54.59 Avg:47.84 Global:45.86
x264 [info]: frame B:126659 Avg QP:18.25 size: 13142 PSNR Mean Y:46.53 U:51.00 V:54.07 Avg:47.51 Global:45.42
x264 [info]: consecutive B-frames: 4.6% 4.5% 11.4% 23.8% 16.8% 29.5% 4.5% 1.5% 1.0% 0.5% 0.7% 0.2% 0.6% 0.2% 0.1% 0.0% 0.2%
x264 [total]: encoded 171197 frames, 7.07 fps, 3697.01 kb/s, duration 6:43:26.99

Знаете ли Вы что

• Персонаж Эдварда (Бен Лэмб) должен был остаться в фильме, но актер покинул проект. В итоге на эту роль взяли Джонни Уэстона, а персонажа переименовали в Эдгара.
• Шейлин Вудли отказалась пользоваться париком в «Инсургенте». Она просто сделала себе короткую прическу. В книге ее персонаж, Трис, тоже подстригает себе волосы, но не настолько коротко, как это показано в фильме.
• Во избежание утечки информации во время съемок проект носил название «Минерал» (Mineral).
• Режиссером этого фильма должен был стать Нил Бёргер, но он отказался из-за несогласованности графиков работы над «Инсургентом» и «Дивергентом» (2014).
• Наоми Уоттс на самом деле натуральная блондинка. Для своей роли в этом фильме она покрасила волосы в каштановый цвет.
• В отличие от первого фильма «Дивергент, глава 2: Инсургент» (2015) снимался в Атланте, а не в Чикаго.
• Показанного в трейлере куба не было в книге.

Скриншот c названием фильма

Скриншоты

Убедительная просьба пожалуйста кто скачал не бросайте раздачу!!!
[Профиль] [ЛС]
Показать сообщения:    

Текущее время: Сегодня 18:34

Часовой пояс: GMT



Вы не можете начинать темы
Вы не можете отвечать на сообщения
Вы не можете редактировать свои сообщения
Вы не можете удалять свои сообщения
Вы не можете голосовать в опросах
Вы не можете прикреплять файлы к сообщениям
Вы не можете скачивать файлы