Дивергент, глава 2: Инсургент / Insurgent (Роберт Швентке / Robert Schwentke) [2015, США, Фантастика, приключения, триллер, BDRip] Dub

 
Автор Сообщение

TorrentFilm ®

Пол:

Стаж: 2 года

Сообщений: 7741



Награды: Нет

Торрент-статистика

Создавать темы 20-Авг-2015 00:10

[Цитировать]

Дивергент, глава 2: Инсургент / Insurgent
Страна: США
Жанр: Фантастика, приключения, триллер
Год выпуска: 2015
Продолжительность: 01:59:00
Перевод: Профессиональный (дублированный) Лицензия
Cубтитры: отсутствуют
Оригинальная аудиодорожка: отсутствует
Режиссер: Роберт Швентке / Robert Schwentke
В ролях: Шейлин Вудли, Тео Джеймс, Кейт Уинслет,
Джай Кортни, Энсел Элгорт, Майлз Теллер, Зои Кравиц,
Мекхай Файфер, Наоми Уоттс, Октавия Спенсер, и др.
Описание: В новой главе антиутопии об обществе, где всё расставлено по полочкам,
а любая индивидуальность подлежит искоренению, Трис должна найти способ борьбы
со страшной системой, уничтожающей её близких. Кто из них на очереди? Она узнаёт
всё больше страшных подробностей, стоящих за кажущимся порядком, и уже не может
не видеть, что в её мире пора что-то менять. Но главное в этой борьбе — справиться
с расколом, который враг порождает в её собственной душе...
Качество видео: BDRip [Blu-ray Remux 1080p-bog3417]
Формат видео: AVI
Vidео: XviD, 720x304 (2.40:1), 23.976 fps, ~1301 kbps avg, 0.248 bit/pixel
Аudiо: (Dolby AC3, 6 ch) CBR 448 kbps, Front: L C R, Side: L R, LFE, 48.0 KHz 16 bits

MediaInfo

ОбщееПолное имя : R:\Insurgent_2015_BDRip_[torrentfilm.net].aviФормат : AVIФормат/Информация : Audio Video InterleaveРазмер файла : 1,46 ГбайтПродолжительность : 1 ч. 59 м.Общий поток : 1759 Кбит/секПрограмма кодирования : VirtualDubModRus 1.5.10.2 (build 2542/release)Библиотека кодирования : VirtualDubMod build 2542/release
ВидеоИдентификатор : 0Формат : MPEG-4 VisualПрофиль формата : Advanced Simple@L5Параметр BVOP формата : 1Параметр QPel формата : НетПараметр GMC формата : Без точки переходаПараметр матрицы формата : ВыборочнаяИдентификатор кодека : XVIDИдентификатор кодека/Подсказка : XviDПродолжительность : 1 ч. 59 м.Битрейт : 1301 Кбит/секШирина : 720 пикселейВысота : 304 пикселяСоотношение сторон : 2,40:1Частота кадров : 23,976 кадра/секЦветовое пространство : YUVСубдискретизация насыщенности : 4:2:0Битовая глубина : 8 битТип развёртки : ПрогрессивнаяМетод сжатия : С потерямиБит/(Пиксели*Кадры) : 0.248Размер потока : 1,08 Гбайт (74%)Библиотека кодирования : XviD 73
АудиоИдентификатор : 1Формат : AC-3Формат/Информация : Audio Coding 3Расширение режима : CM (complete main)Параметр Endianness формата : BigИдентификатор кодека : 2000Продолжительность : 1 ч. 59 м.Вид битрейта : ПостоянныйБитрейт : 448 Кбит/секКаналы : 6 каналовРасположение каналов : Front: L C R, Side: L R, LFEЧастота : 48,0 КГцБитовая глубина : 16 битМетод сжатия : С потерямиРазмер потока : 381 Мбайт (25%)Выравнивание : Разделение по промежуткамПродолжительность промежутка : 42 мс. (1,00 видеокадр)Время предзагрузки промежутка : 500 мс.

Скриншот c названием фильма

Скриншоты

Музыка из фильма
Раздача: По возможности!!!
[Профиль] [ЛС]
Показать сообщения:    

Текущее время: Сегодня 12:12

Часовой пояс: GMT



Вы не можете начинать темы
Вы не можете отвечать на сообщения
Вы не можете редактировать свои сообщения
Вы не можете удалять свои сообщения
Вы не можете голосовать в опросах
Вы не можете прикреплять файлы к сообщениям
Вы не можете скачивать файлы