Диана: История любви / Diana (Оливер Хиршбигель / Oliver Hirschbiegel) [2013, Великобритания, Франция, Швеция, Бельгия, драма, мелодрама, биография, DVDRip] Dub

 
Автор Сообщение

sergej644 ®

Пол:

Стаж: 4 года 11 месяцев

Сообщений: 6046

Откуда: Soviet Union



Награды: Нет

Торрент-статистика

Создавать темы 03-Окт-2014 22:07

[Цитировать]

--Диана: История любви / Diana
Страна: Великобритания, Франция, Швеция, Бельгия
Жанр: драма, мелодрама, биография
Год выпуска: 2013
Продолжительность: 01:52:51
Перевод: Профессиональный (дублированный)
Cубтитры: нет
Оригинальная аудиодорожка: нет
Режиссер: Оливер Хиршбигель / Oliver Hirschbiegel
В ролях: Наоми Уоттс, Навин Эндрюс, Дуглас Ходж, Джеральдин Джеймс, Чарльз Эдвардс, Дэниэл Пайрри, Кэс Анвар, Джульет Стивенсон, Джонатан Керриган, Лоуренс Белчер
Описание: Леди Диана, прожила по нынешним меркам короткую, но очень насыщенную жизнь, занимаясь благотворительностью и миротворчеством, о ней узнал весь мир. Можно сказать, она была самой популярной женщиной той эпохи, о ней написано много книг, статей и рассказов, но какая она была на самом деле? Этот художественный фильм, частично приоткроет зрителю таинственный занавес, над приватной жизнью, принцессы Дианы. Ей признавались в любви многие, но кого любила она, до того момента, когда в рассвете сил, 36 лет, трагически оборвалась ее жизнь.
Сэмпл: http://multi-up.com/1003561
Качество видео: DVDRip
Формат видео: AVI
Видео: 720x384 (1.88:1), 23.976 fps, XviD build 73, 1384 kbps avg, 0.21 bit/pixel
Аудио: 48 kHz, AC3 Dolby Digital, 3/2 (L,C,R,l,r) + LFE ch, 448 kbps

MediaInfo

eneral
Complete name : I:\Диана История любви (2013).avi
Format : AVI
Format/Info : Audio Video Interleave
File size : 1.45 GiB
Duration : 1h 52mn
Overall bit rate : 1 842 Kbps
Writing application : VirtualDubMod 1.5.10.2 (build 2540/release)
Writing library : VirtualDubMod build 2540/release
Video
ID : 0
Format : MPEG-4 Visual
Format profile : Advanced Simple@L5
Format settings, BVOP : 2
Format settings, QPel : No
Format settings, GMC : No warppoints
Format settings, Matrix : Custom
Codec ID : XVID
Codec ID/Hint : XviD
Duration : 1h 52mn
Bit rate : 1 385 Kbps
Width : 720 pixels
Height : 384 pixels
Display aspect ratio : 1.85:1
Frame rate : 23.976 fps
Color space : YUV
Chroma subsampling : 4:2:0
Bit depth : 8 bits
Scan type : Progressive
Compression mode : Lossy
Bits/(Pixel*Frame) : 0.209
Stream size : 1.09 GiB (75%)
Writing library : XviD 73
Audio
ID : 1
Format : AC-3
Format/Info : Audio Coding 3
Mode extension : CM (complete main)
Format settings, Endianness : Big
Codec ID : 2000
Duration : 1h 52mn
Bit rate mode : Constant
Bit rate : 448 Kbps
Channel count : 6 channels
Channel positions : Front: L C R, Side: L R, LFE
Sampling rate : 48.0 KHz
Bit depth : 16 bits
Compression mode : Lossy
Stream size : 361 MiB (24%)
Alignment : Split accross interleaves
Interleave, duration : 42 ms (1.00 video frame)
Interleave, preload duration : 500 ms

Скриншот c названием фильма

Скриншоты

[Профиль] [ЛС]
Показать сообщения:    

Текущее время: Сегодня 18:51

Часовой пояс: GMT



Вы не можете начинать темы
Вы не можете отвечать на сообщения
Вы не можете редактировать свои сообщения
Вы не можете удалять свои сообщения
Вы не можете голосовать в опросах
Вы не можете прикреплять файлы к сообщениям
Вы не можете скачивать файлы