Джyнгли в 3Д (Aлeксaндp Вoйтинcкий) [2012, мелодрама, комедия, приключения, BDrip-avc] Anamorph OverUnder / Вертикальная анаморфная стереопара

 
Автор Сообщение

TorrentFilm ®

Пол:

Стаж: 1 год 11 месяцев

Сообщений: 7741



Награды: Нет

Торрент-статистика

Создавать темы 01-Янв-2016 00:12

[Цитировать]

Джyнгли 3Д«Любовь - этo война!»
Год выпуска: 2012
Страна: Россия (Кинокомпания CTB)
Жанр: мелодрама, комедия, приключения
Продолжительность: 01:23:30
Перевод: Не требуется
Русские субтитры: нет
Режиссер на русском: Aлeксaндp BoйтинскийВ ролях:Cергей Cветлаков, Верa Брежневa, Aлександр Макогон, Aлександр Половцев, Mарина Дюжева, Mихаил Ефремов, Иринa Медведева, Aмпорн Пaнкраток, Соонтри Кхумжуллa, Сомсак Падугa.Описание:У Сергея и Марины в семейной жизни наступил кризис. Во время одной из ссор, они решают поехать в экзотическое путешествие. Всю дорогу между супругами не утихают ссоры, которые в конце концов приводят к тому, что они оказываются на необитаемом острове, затерянном в океане. Вместо того чтобы вместе бороться за выживание, наши герои продолжают выяснять отношения, постепенно переходя к настоящим боевым действиям. В довершение несчастий оказывается, что остров населен племенем воинствующих туземцев.

Техн. детали съёмки

Премьера: 29 ноября 2012 (29 ноября 2012)
Бюджет: $?
Кассовые сборы: $11 812 124
Релиз на DVD и Blu-Ray: 18 декабря 2012 (29 января 2013)

. .
Проверено на встроенном плейере ТВ LG LW 650S
-Доп. информация по релизу: За источник спасибо сервису а также АДмину и BlurayDude--Качество: BDrip
Контейнер: MKV
Формат 3D: Anamorph OverUnder / Вертикальная анаморфная стереопара
Порядок ракурсов: левый ракурс первый
Видео кодек: x264
Аудио кодек: AC3-Видео: AVC / 23,976 fps / 1920х1080p / 13,6 Mbps
Аудио: Русский / AC3 / 48 KHz /5.1 ch / 640 Kbps
Субтитры: нет

MediaInfo

Общее
Уникальный идентификатор : 177362849965641972598893655308258173408 (0x856ED7A6060A786BA150BA5FD476E1E0)
Полное имя : E:\3Д фильмы\Джунгли (3D )2012.BDRip.1080p.Half OU.x264.AC3 Rus.3D-RuGroup.(m@rik05).mkv
Формат : Matroska
Версия формата : Version 2
Размер файла : 8,45 Гбайт
Продолжительность : 1 ч. 23 м.
Общий поток : 14,5 Мбит/сек
Название фильма : Джунгли 3D (2012) 3D-RuGroup (m@rik05)
Дата кодирования : UTC 2013-01-27 06:51:05
Программа кодирования : mkvmerge v3.4.0 ('Rapunzel') сборка от May 15 2010 09:38:20
Библиотека кодирования : libebml v0.8.0 + libmatroska v0.9.0
Видео
Идентификатор : 1
Формат : AVC
Формат/Информация : Advanced Video Codec
Профиль формата : High@L4.1
Параметр CABAC формата : Да
Параметр ReFrames формата : 4 кадра
Идентификатор кодека : V_MPEG4/ISO/AVC
Продолжительность : 1 ч. 23 м.
Битрейт : 13,6 Мбит/сек
Ширина : 1920 пикселей
Высота : 1080 пикселей
Соотношение сторон : 16:9
Режим частоты кадров : Постоянный
Частота кадров : 23,976 кадра/сек
Цветовое пространство : YUV
Субдискретизация насыщенности : 4:2:0
Битовая глубина : 8 бит
Тип развёртки : Прогрессивная
Бит/(Пиксели*Кадры) : 0.273
Размер потока : 7,91 Гбайт (94%)
Заголовок : BDrip 1080p by m@rik05
Библиотека кодирования : x264 core 116 r2074 2641b9e
Настройки программы : cabac=1 / ref=4 / deblock=1:-3:-3 / analyse=0x3:0x133 / me=umh / subme=9 / psy=1 / psy_rd=1.00:0.05 / mixed_ref=1 / me_range=16 / chroma_me=1 / trellis=2 / 8x8dct=1 / cqm=0 / deadzone=21,11 / fast_pskip=1 / chroma_qp_offset=-3 / threads=12 / sliced_threads=0 / nr=0 / decimate=1 / interlaced=0 / bluray_compat=0 / constrained_intra=0 / bframes=6 / b_pyramid=2 / b_adapt=2 / b_bias=0 / direct=3 / weightb=1 / open_gop=0 / weightp=2 / keyint=250 / keyint_min=23 / scenecut=40 / intra_refresh=0 / rc_lookahead=60 / rc=crf / mbtree=1 / crf=18.0 / qcomp=0.70 / qpmin=10 / qpmax=51 / qpstep=4 / vbv_maxrate=40000 / vbv_bufsize=30000 / crf_max=0.0 / nal_hrd=none / frame-packing=4 / ip_ratio=1.40 / aq=1:0.70
Язык : Russian
Default : Нет
Forced : Нет
Аудио
Идентификатор : 2
Формат : AC-3
Формат/Информация : Audio Coding 3
Расширение режима : CM (complete main)
Параметр Endianness формата : Big
Идентификатор кодека : A_AC3
Продолжительность : 1 ч. 23 м.
Вид битрейта : Постоянный
Битрейт : 640 Кбит/сек
Каналы : 6 каналов
Расположение каналов : Front: L C R, Side: L R, LFE
Частота : 48,0 КГц
Битовая глубина : 16 бит
Метод сжатия : С потерями
Размер потока : 382 Мбайт (4%)
Заголовок : AC3 / 5/1 ch / 640 kbps / original
Язык : Russian
Default : Да
Forced : Нет
Меню
00:00:00.000 : en:00:00:00.000
00:04:00.782 : en:00:04:00.782
00:07:56.309 : en:00:07:56.309
00:14:02.050 : en:00:14:02.050
00:17:18.329 : en:00:17:18.329
00:21:46.972 : en:00:21:46.972
00:27:42.452 : en:00:27:42.452
00:34:58.805 : en:00:34:58.805
00:40:15.622 : en:00:40:15.622
00:46:24.281 : en:00:46:24.281
00:51:48.063 : en:00:51:48.063
00:56:29.094 : en:00:56:29.094
01:00:58.029 : en:01:00:58.029
01:07:08.107 : en:01:07:08.107
01:13:54.138 : en:01:13:54.138
01:18:50.225 : en:01:18:50.225

Log x264

[Профиль] [ЛС]
Кто просматривает тему:

Показать сообщения:    

Текущее время: Сегодня 04:57

Часовой пояс: GMT



Вы не можете начинать темы
Вы не можете отвечать на сообщения
Вы не можете редактировать свои сообщения
Вы не можете удалять свои сообщения
Вы не можете голосовать в опросах
Вы не можете прикреплять файлы к сообщениям
Вы не можете скачивать файлы