Джунгли (Александр Войтинский) [2012, мелодрама, комедия, приключения, BDRip 720p]

 
Автор Сообщение

painkiller ®

Стаж: 2 года 3 месяца

Сообщений: 582



Награды: Нет

Торрент-статистика

Создавать темы 14-Авг-2014 13:06

[Цитировать]

Джунгли
Страна: Россия
Студия: Кинокомпания CTB
Жанр: мелодрама, комедия, приключения
Год выпуска: 2012
Продолжительность: 01:24:20
Навигация по главам: есть
Субтитры: нет
Режиссер: Александр Войтинский
В ролях: Сергей Светлаков, Вера Брежнева, Александр Макогон, Александр Половцев, Марина Дюжева, Михаил Ефремов, Ирина Медведева, Андрей Гаврилов
Описание: У Сергея и Марины в семейной жизни наступил кризис. Во время одной из ссор, они решают поехать в экзотическое путешествие. Всю дорогу между супругами не утихают ссоры, которые в конце концов приводят к тому, что они оказываются на необитаемом острове, затерянном в океане. Вместо того чтобы вместе бороться за выживание, наши герои продолжают выяснять отношения, постепенно переходя к настоящим боевым действиям. В довершение несчастий оказывается, что остров населен племенем воинствующих туземцев.

Релиз: fanatus
Качество видео: BDRip 720p
Исходник: Blu-ray 1080p AVC DTS HD 5.1 - HDCLUB
Контейнер: MKV
Видео: MPEG-4 AVC, 7000 kbps , 1280x542 (2.35:1), 23.976 fps, 0.421 bit/pixel
Аудио: DTS, 6 ch, 48 kHz, 1510 kbps

MediaInfo

General
Unique ID : 195418575546050504258847579604561844783 (0x93043FA66FA62BB6B5522CBFE08E5A2F)
Complete name : D:\Dzhungli.2012.x264.BDRip.720p.fanatus.mkv
Format : Matroska
Format version : Version 2
File size : 4.96 GiB
Duration : 1h 23mn
Overall bit rate : 8 506 Kbps
Movie name : Dzhungli (2012) - fanatus
Encoded date : UTC 2013-05-13 07:57:16
Writing application : mkvmerge v3.4.0 ('Rapunzel') сборка от May 15 2010 09:38:20
Writing library : libebml v0.8.0 + libmatroska v0.9.0
Video
ID : 1
Format : AVC
Format/Info : Advanced Video Codec
Format profile : High@L4.1
Format settings, CABAC : Yes
Format settings, ReFrames : 10 frames
Codec ID : V_MPEG4/ISO/AVC
Duration : 1h 23mn
Bit rate : 7 000 Kbps
Width : 1 280 pixels
Height : 542 pixels
Display aspect ratio : 2.35:1
Frame rate : 23.976 fps
Color space : YUV
Chroma subsampling : 4:2:0
Bit depth : 8 bits
Scan type : Progressive
Bits/(Pixel*Frame) : 0.421
Stream size : 3.98 GiB (80%)
Title : Dzhungli (2012)
Writing library : x264 core 132 r2323+704+51 d571b1c tMod [8-bit@all X86]
Encoding settings : cabac=1 / ref=10 / deblock=1:-3:-3 / analyse=0x3:0x113 / me=tesa / subme=11 / psy=1 / fade_compensate=0.00 / psy_rd=1.10:0.05 / mixed_ref=1 / me_range=48 / chroma_me=1 / trellis=2 / 8x8dct=1 / cqm=0 / deadzone=21,11 / fast_pskip=0 / chroma_qp_offset=-3 / threads=16 / lookahead_threads=4 / sliced_threads=0 / nr=0 / decimate=0 / interlaced=0 / bluray_compat=0 / constrained_intra=0 / fgo=0 / bframes=10 / b_pyramid=2 / b_adapt=2 / b_bias=0 / direct=3 / weightb=1 / open_gop=0 / weightp=2 / keyint=240 / keyint_min=23 / scenecut=40 / intra_refresh=0 / rc_lookahead=240 / rc=2pass / mbtree=0 / bitrate=7000 / ratetol=1.0 / qcomp=0.75 / qpmin=0 / qpmax=51 / qpstep=4 / cplxblur=20.0 / qblur=0.5 / vbv_maxrate=50000 / vbv_bufsize=62500 / nal_hrd=none / ip_ratio=1.30 / pb_ratio=1.20 / aq=4:0.85 / aq-sensitivity=10.00 / aq-factor=1.00:1.00:1.00 / aq2=0 / aq3=0
Language : Russian
Default : Yes
Forced : No
Color primaries : BT.709-5, BT.1361, IEC 61966-2-4, SMPTE RP177
Transfer characteristics : BT.709-5, BT.1361
Matrix coefficients : BT.709-5, BT.1361, IEC 61966-2-4 709, SMPTE RP177
Audio
ID : 2
Format : DTS
Format/Info : Digital Theater Systems
Codec ID : A_DTS
Duration : 1h 23mn
Bit rate mode : Constant
Bit rate : 1 510 Kbps
Channel(s) : 6 channels
Channel positions : Front: L C R, Side: L R, LFE
Sampling rate : 48.0 KHz
Bit depth : 16 bits
Compression mode : Lossy
Stream size : 901 MiB (18%)
Title : Original
Language : Russian
Default : Yes
Forced : No
Menu
00:00:00.000 : en:Chapter 01
00:04:00.740 : en:Chapter 02
00:07:56.267 : en:Chapter 03
00:14:02.007 : en:Chapter 04
00:17:18.287 : en:Chapter 05
00:21:46.930 : en:Chapter 06
00:27:42.410 : en:Chapter 07
00:34:58.763 : en:Chapter 08
00:40:15.579 : en:Chapter 09
00:46:24.239 : en:Chapter 10
00:51:48.021 : en:Chapter 11
00:56:29.052 : en:Chapter 12
01:00:57.987 : en:Chapter 13
01:07:08.065 : en:Chapter 14
01:13:54.096 : en:Chapter 15
01:18:50.183 : en:Chapter 16
01:23:27.210 : en:Chapter 17

x264 [info]

x264 [info]: 1280x542p 1:1 @ 24000/1001 fps (cfr)
x264 [info]: frame I:1084 Avg QP:15.92 size:144749
x264 [info]: frame P:33942 Avg QP:18.63 size: 57973
x264 [info]: frame B:85037 Avg QP:20.01 size: 26499
x264 [info]: consecutive B-frames: 6.4% 6.6% 13.6% 29.6% 15.6% 21.2% 3.6% 1.3% 1.0% 0.5% 0.7%
x264 [info]: mb I I16..4: 10.6% 59.1% 30.3%
x264 [info]: mb P I16..4: 1.3% 13.2% 2.5% P16..4: 28.1% 33.3% 15.6% 0.0% 0.0% skip: 6.1%
x264 [info]: mb B I16..4: 0.2% 2.7% 0.5% B16..8: 31.7% 24.2% 6.5% direct: 9.5% skip:24.7% L0:37.8% L1:40.4% BI:21.8%
x264 [info]: 8x8 transform intra:75.9% inter:55.5%
x264 [info]: direct mvs spatial:97.6% temporal:2.4%
x264 [info]: coded y,uvDC,uvAC intra: 90.3% 90.7% 80.2% inter: 40.1% 41.3% 22.1%
x264 [info]: i16 v,h,dc,p: 40% 26% 5% 29%
x264 [info]: i8 v,h,dc,ddl,ddr,vr,hd,vl,hu: 10% 10% 8% 9% 13% 13% 13% 12% 13%
x264 [info]: i4 v,h,dc,ddl,ddr,vr,hd,vl,hu: 10% 10% 6% 8% 15% 14% 13% 11% 13%
x264 [info]: i8c dc,h,v,p: 45% 21% 16% 19%
x264 [info]: Weighted P-Frames: Y:2.4% UV:1.1%
x264 [info]: ref P L0: 51.5% 14.1% 14.9% 5.2% 4.0% 2.8% 2.5% 1.6% 1.5% 1.3% 0.4% 0.0%
x264 [info]: ref B L0: 78.5% 10.5% 4.3% 2.2% 1.5% 1.2% 1.0% 0.5% 0.2%
x264 [info]: ref B L1: 94.0% 6.0%
x264 [info]: kb/s:6994.14
x264 [info]: encoded 120063 frames, 1.749 fps, 6994.14 kb/s, 4175.2 MB

Скриншот c названием фильма

Source vs Rip




[Профиль] [ЛС]
Кто просматривает тему:

Форум Тема Автор Размер
Фильмы 2011 года Джордж из джунглей / George of the Jungle (1997) DVDRip | P Russian Mafia 2.05 GB
Фильмы (HD Rips | 720p, 1080p) Джордж из джунглей / George of the Jungle (1997) Web-DL 720p | P sergej644 2.75 GB
Фильмы (HD Rips | 720p, 1080p) Джунгли (Александр Войтинский) [2012, Россия, мелодрама, комедия, приключения, BDRip 1080p] TorrentFilm 9.62 GB
Фильмы (DVD 5/9) Джунгли (Александр Войтинский) [2012, Россия, мелодрама, комедия, приключения, DVD5 (Сжатый)] TorrentFilm 4.33 GB
Фильмы (DVD 5/9) Джунгли (Александр Войтинский) [2012, Россия, мелодрама, комедия, приключения, DVD9] R5 Original Rus TorrentFilm 4.52 GB
Фильмы 2013 года Джунгли / The Jungle (2013) WEB-DL 1080p | P sergej644 2.63 GB
Зарубежные Джунгли в 3Д (Александр Войтинский) [2012, Россия, мелодрама, комедия, приключения, Blu-ray Disc 1080p] [RUS] BD3D TorrentFilm 21.89 GB
Отечественные cериалы Закон каменных джунглей (1-8 серия из 8) (Игорь Хомский, Иван Бурлаков) [2015 г., драма, криминал, SATRip] достали все 4.99 GB
Показать сообщения:    

Текущее время: Сегодня 06:26

Часовой пояс: GMT



Вы не можете начинать темы
Вы не можете отвечать на сообщения
Вы не можете редактировать свои сообщения
Вы не можете удалять свои сообщения
Вы не можете голосовать в опросах
Вы не можете прикреплять файлы к сообщениям
Вы не можете скачивать файлы