Джуманджи / Jumanji (1995) BDRip 1080p | D, P, A

 
Автор Сообщение

Russian Mafia ®

Пол:

Стаж: 1 год 8 месяцев

Сообщений: 4256



Награды: 10 (Подробнее)

Mega Seeder 5 (Количество: 1) Mega Seeder 4 (Количество: 1) Mega Seeder 2 (Количество: 1)
Торрент-статистика

Создавать темы 27-Май-2016 14:57

[Цитировать]

Информация о фильме
Название: Джуманджи
Оригинальное название: Jumanji
Год выпуска: 1995
Страна: США
Жанр: Фэнтези, приключения
Продолжительность: 01:44:06
Перевод: Профессиональный (полное дублирование), Киномания
Перевод: Профессиональный (многоголосый закадровый), Superbit
Перевод: Профессиональный (многоголосый закадровый), Видеосервис (DVD)
Перевод: Профессиональный (многоголосый закадровый), Видеосервис (VHS)
Перевод: Профессиональный (многоголосый закадровый), Первый канал
Перевод: Профессиональный (многоголосый закадровый), НТВ
Перевод: Профессиональный (многоголосый закадровый), СТС
Перевод: Профессиональный (многоголосый закадровый), РТР
Перевод: Авторский (одноголосый закадровый), А. Гаврилов (поздний) + (ранний)
Перевод: Авторский (одноголосый закадровый), Ю. Живов
Перевод: Авторский (одноголосый закадровый), С. Визгунов
Перевод: Авторский (одноголосый закадровый), Лёша-Прапорщик
Субтитры: Русские, английские
Режиссер: Джо Джонстон
В ролях: Робин Уильямс, Джонатан Хайд, Кирстен Данст, Брэдли Пирс, Бонни Хант, Биби Нойуэрт, Дэвид Алан Грайр, Патришия Кларксон, Адам Хэнн-Берд, Лаура Белл Банди
Описание: Случайно обнаружив настольную игру со странным названием «Джуманджи» Алан Пэрриш, не зная о ее сверхъестественных свойствах, на глазах изумленной подружки переносится в джунгли.
Долгие годы он находится в потустороннем мире, до тех пор, пока двое ни о чем не подозревающих подростков не находят игру и не снимают волшебные чары, освобождая Алана из многолетнего плена.
Теперь им предстоит решить нелегкую задачу — победить могущественную силу игры, пройти немыслимые препятствия и одержать победу над силами Магии!

Качество: BDRip 1080p
Формат: MKV
Видео кодек: H264
Аудио кодек: AC3
Видео: MPEG4 Video (H264), 1920x1040, 23.976fps, 12.5 Mbps
Аудио #01: Русский: Dolby AC3, 48000 Hz, 6ch, 448 kbps - Дубляж, Киномания
Аудио #02: Русский: Dolby AC3, 48000 Hz, 6ch, 448 kbps - Многоголосый, Superbit
Аудио #03: Русский: Dolby AC3, 48000 Hz, 2ch, 192 kbps - Многоголосый, Видеосервис (DVD)
Аудио #04: Русский: Dolby AC3, 48000 Hz, 2ch, 192 kbps - Многоголосый, Видеосервис (VHS)
Аудио #05: Русский: Dolby AC3, 48000 Hz, 2ch, 192 kbps - Многоголосый, Первый канал
Аудио #06: Русский: Dolby AC3, 48000 Hz, 2ch, 192 kbps - Многоголосый, НТВ
Аудио #07: Русский: Dolby AC3, 48000 Hz, 2ch, 192 kbps - Многоголосый, СТС
Аудио #08: Русский: Dolby AC3, 48000 Hz, 2ch, 192 kbps - Многоголосый, РТР
Аудио #09: Русский: Dolby AC3, 48000 Hz, 6ch, 448 kbps - Одноголосый, А. Гаврилов (поздний)
Аудио #10: Русский: Dolby AC3, 48000 Hz, 2ch, 192 kbps - Одноголосый, А. Гаврилов (ранний)
Аудио #11: Русский: Dolby AC3, 48000 Hz, 6ch, 448 kbps - Одноголосый, Ю. Живов
Аудио #12: Русский: Dolby AC3, 48000 Hz, 2ch, 192 kbps - Одноголосый, С. Визгунов
Аудио #13: Русский: Dolby AC3, 48000 Hz, 2ch, 192 kbps - Одноголосый, Лёша-Прапорщик
Аудио #14: Украинский: Dolby AC3, 48000 Hz, 2ch, 192 kbps - Многоголосый, Интер
Аудио #15: Английский: Dolby AC3, 48000 Hz, 6ch, 448 kbps
Формат субтитров: Softsub (SRT)
Сэмпл

MediaInfo:

General
Unique ID : 220426215003164511090157470688682621412 (0xA5D48B780786FFD7A3A054F3A3FEB9E4)
Complete name : F:Torrent 21995.Jumanji.renta23.mkv
Format : Matroska
Format version : Version 4 / Version 2
File size : 12.1 GiB
Duration : 1h 44mn
Overall bit rate : 16.7 Mbps
Movie name : 1995 Джуманджи / renta23
Encoded date : UTC 2016-05-27 08:24:48
Writing application : mkvmerge v8.3.0 ('Over the Horizon') 64bit
Writing library : libebml v1.3.1 + libmatroska v1.4.2
Video
ID : 1
Format : AVC
Format/Info : Advanced Video Codec
Format profile : High@L4.1
Format settings, CABAC : Yes
Format settings, ReFrames : 4 frames
Codec ID : V_MPEG4/ISO/AVC
Duration : 1h 44mn
Bit rate : 12.5 Mbps
Width : 1 920 pixels
Height : 1 040 pixels
Display aspect ratio : 1.85:1
Frame rate mode : Constant
Frame rate : 23.976 (24000/1001) fps
Color space : YUV
Chroma subsampling : 4:2:0
Bit depth : 8 bits
Scan type : Progressive
Bits/(Pixel*Frame) : 0.261
Stream size : 9.09 GiB (75%)
Title : 1995 Джуманджи
Writing library : x264 core 146 r2538 121396c
Encoding settings : cabac=1 / ref=4 / deblock=1:-1:-1 / analyse=0x3:0x133 / me=umh / subme=11 / psy=1 / psy_rd=1.07:0.23 / mixed_ref=1 / me_range=32 / chroma_me=1 / trellis=2 / 8x8dct=1 / cqm=0 / deadzone=21,11 / fast_pskip=0 / chroma_qp_offset=-3 / threads=12 / lookahead_threads=3 / sliced_threads=0 / nr=0 / decimate=1 / interlaced=0 / bluray_compat=0 / constrained_intra=0 / bframes=10 / b_pyramid=2 / b_adapt=2 / b_bias=0 / direct=3 / weightb=1 / open_gop=0 / weightp=2 / keyint=250 / keyint_min=23 / scenecut=40 / intra_refresh=0 / rc=2pass / mbtree=0 / bitrate=12500 / ratetol=1.0 / qcomp=0.60 / qpmin=0 / qpmax=69 / qpstep=4 / cplxblur=20.0 / qblur=0.5 / ip_ratio=1.40 / pb_ratio=1.30 / aq=2:1.00
Language : English
Default : Yes
Forced : No
Audio #1
ID : 2
Format : AC-3
Format/Info : Audio Coding 3
Mode extension : CM (complete main)
Format settings, Endianness : Big
Codec ID : A_AC3
Duration : 1h 44mn
Bit rate mode : Constant
Bit rate : 448 Kbps
Channel(s) : 6 channels
Channel positions : Front: L C R, Side: L R, LFE
Sampling rate : 48.0 KHz
Frame rate : 31.250 fps (1536 spf)
Compression mode : Lossy
Stream size : 334 MiB (3%)
Title : Дубляж, Киномания
Language : Russian
Default : Yes
Forced : No
Audio #2
ID : 3
Format : AC-3
Format/Info : Audio Coding 3
Mode extension : CM (complete main)
Format settings, Endianness : Big
Codec ID : A_AC3
Duration : 1h 44mn
Bit rate mode : Constant
Bit rate : 448 Kbps
Channel(s) : 6 channels
Channel positions : Front: L C R, Side: L R, LFE
Sampling rate : 48.0 KHz
Frame rate : 31.250 fps (1536 spf)
Compression mode : Lossy
Stream size : 334 MiB (3%)
Title : Многоголосый, Superbit
Language : Russian
Default : No
Forced : No
Audio #3
ID : 4
Format : AC-3
Format/Info : Audio Coding 3
Mode extension : CM (complete main)
Format settings, Endianness : Big
Codec ID : A_AC3
Duration : 1h 44mn
Bit rate mode : Constant
Bit rate : 192 Kbps
Channel(s) : 2 channels
Channel positions : Front: L R
Sampling rate : 48.0 KHz
Frame rate : 31.250 fps (1536 spf)
Compression mode : Lossy
Stream size : 143 MiB (1%)
Title : Многоголосый, Видеосервис DVD
Language : Russian
Default : No
Forced : No
Audio #4
ID : 5
Format : AC-3
Format/Info : Audio Coding 3
Mode extension : CM (complete main)
Format settings, Endianness : Big
Codec ID : A_AC3
Duration : 1h 44mn
Bit rate mode : Constant
Bit rate : 192 Kbps
Channel(s) : 2 channels
Channel positions : Front: L R
Sampling rate : 48.0 KHz
Frame rate : 31.250 fps (1536 spf)
Compression mode : Lossy
Stream size : 143 MiB (1%)
Title : Многоголосый закадровый, Видеосервис VHS
Language : Russian
Default : No
Forced : No
Audio #5
ID : 6
Format : AC-3
Format/Info : Audio Coding 3
Mode extension : CM (complete main)
Format settings, Endianness : Big
Codec ID : A_AC3
Duration : 1h 44mn
Bit rate mode : Constant
Bit rate : 192 Kbps
Channel(s) : 2 channels
Channel positions : Front: L R
Sampling rate : 48.0 KHz
Frame rate : 31.250 fps (1536 spf)
Compression mode : Lossy
Stream size : 143 MiB (1%)
Title : Многоголосый, Первый канал
Language : Russian
Default : No
Forced : No
Audio #6
ID : 7
Format : AC-3
Format/Info : Audio Coding 3
Mode extension : CM (complete main)
Format settings, Endianness : Big
Codec ID : A_AC3
Duration : 1h 44mn
Bit rate mode : Constant
Bit rate : 192 Kbps
Channel(s) : 2 channels
Channel positions : Front: L R
Sampling rate : 48.0 KHz
Frame rate : 31.250 fps (1536 spf)
Compression mode : Lossy
Stream size : 143 MiB (1%)
Title : Многоголосый, НТВ
Language : Russian
Default : No
Forced : No
Audio #7
ID : 8
Format : AC-3
Format/Info : Audio Coding 3
Mode extension : CM (complete main)
Format settings, Endianness : Big
Codec ID : A_AC3
Duration : 1h 44mn
Bit rate mode : Constant
Bit rate : 192 Kbps
Channel(s) : 2 channels
Channel positions : Front: L R
Sampling rate : 48.0 KHz
Frame rate : 31.250 fps (1536 spf)
Compression mode : Lossy
Stream size : 143 MiB (1%)
Title : Многоголосый, СТС
Language : Russian
Default : No
Forced : No
Audio #8
ID : 9
Format : AC-3
Format/Info : Audio Coding 3
Mode extension : CM (complete main)
Format settings, Endianness : Big
Codec ID : A_AC3
Duration : 1h 44mn
Bit rate mode : Constant
Bit rate : 192 Kbps
Channel(s) : 2 channels
Channel positions : Front: L R
Sampling rate : 48.0 KHz
Frame rate : 31.250 fps (1536 spf)
Compression mode : Lossy
Stream size : 143 MiB (1%)
Title : Многоголосый, РТР
Language : Russian
Default : No
Forced : No
Audio #9
ID : 10
Format : AC-3
Format/Info : Audio Coding 3
Mode extension : CM (complete main)
Format settings, Endianness : Big
Codec ID : A_AC3
Duration : 1h 44mn
Bit rate mode : Constant
Bit rate : 448 Kbps
Channel(s) : 6 channels
Channel positions : Front: L C R, Side: L R, LFE
Sampling rate : 48.0 KHz
Frame rate : 31.250 fps (1536 spf)
Compression mode : Lossy
Stream size : 334 MiB (3%)
Title : Одноголосый, А. Гаврилов (поздний)
Language : Russian
Default : No
Forced : No
Audio #10
ID : 11
Format : AC-3
Format/Info : Audio Coding 3
Mode extension : CM (complete main)
Format settings, Endianness : Big
Codec ID : A_AC3
Duration : 1h 44mn
Bit rate mode : Constant
Bit rate : 192 Kbps
Channel(s) : 2 channels
Channel positions : Front: L R
Sampling rate : 48.0 KHz
Frame rate : 31.250 fps (1536 spf)
Compression mode : Lossy
Stream size : 143 MiB (1%)
Title : Одноголосый, А. Гаврилов (ранний)
Language : Russian
Default : No
Forced : No
Audio #11
ID : 12
Format : AC-3
Format/Info : Audio Coding 3
Mode extension : CM (complete main)
Format settings, Endianness : Big
Codec ID : A_AC3
Duration : 1h 44mn
Bit rate mode : Constant
Bit rate : 448 Kbps
Channel(s) : 6 channels
Channel positions : Front: L C R, Side: L R, LFE
Sampling rate : 48.0 KHz
Frame rate : 31.250 fps (1536 spf)
Compression mode : Lossy
Stream size : 334 MiB (3%)
Title : Одноголосый, Ю. Живов
Language : Russian
Default : No
Forced : No
Audio #12
ID : 13
Format : AC-3
Format/Info : Audio Coding 3
Mode extension : CM (complete main)
Format settings, Endianness : Big
Codec ID : A_AC3
Duration : 1h 44mn
Bit rate mode : Constant
Bit rate : 192 Kbps
Channel(s) : 2 channels
Channel positions : Front: L R
Sampling rate : 48.0 KHz
Frame rate : 31.250 fps (1536 spf)
Compression mode : Lossy
Stream size : 143 MiB (1%)
Title : Одноголосый, С. Визгунов
Language : Russian
Default : No
Forced : No
Audio #13
ID : 14
Format : AC-3
Format/Info : Audio Coding 3
Mode extension : CM (complete main)
Format settings, Endianness : Big
Codec ID : A_AC3
Duration : 1h 44mn
Bit rate mode : Constant
Bit rate : 192 Kbps
Channel(s) : 2 channels
Channel positions : Front: L R
Sampling rate : 48.0 KHz
Frame rate : 31.250 fps (1536 spf)
Compression mode : Lossy
Stream size : 143 MiB (1%)
Title : Одноголосый, Лёша-Прапорщик
Language : Russian
Default : No
Forced : No
Audio #14
ID : 15
Format : AC-3
Format/Info : Audio Coding 3
Mode extension : CM (complete main)
Format settings, Endianness : Big
Codec ID : A_AC3
Duration : 1h 44mn
Bit rate mode : Constant
Bit rate : 192 Kbps
Channel(s) : 2 channels
Channel positions : Front: L R
Sampling rate : 48.0 KHz
Frame rate : 31.250 fps (1536 spf)
Compression mode : Lossy
Stream size : 143 MiB (1%)
Title : Многоголосый, Интер
Language : Ukrainian
Default : No
Forced : No
Audio #15
ID : 16
Format : AC-3
Format/Info : Audio Coding 3
Mode extension : CM (complete main)
Format settings, Endianness : Big
Codec ID : A_AC3
Duration : 1h 44mn
Bit rate mode : Constant
Bit rate : 448 Kbps
Channel(s) : 6 channels
Channel positions : Front: L C R, Side: L R, LFE
Sampling rate : 48.0 KHz
Frame rate : 31.250 fps (1536 spf)
Compression mode : Lossy
Stream size : 334 MiB (3%)
Language : English
Default : No
Forced : No
Text #1
ID : 17
Format : UTF-8
Codec ID : S_TEXT/UTF8
Codec ID/Info : UTF-8 Plain Text
Duration : 1h 37mn
Bit rate : 48 bps
Count of elements : 638
Stream size : 34.5 KiB (0%)
Language : Russian
Default : No
Forced : No
Text #2
ID : 18
Format : UTF-8
Codec ID : S_TEXT/UTF8
Codec ID/Info : UTF-8 Plain Text
Duration : 1h 37mn
Bit rate : 41 bps
Count of elements : 975
Stream size : 29.9 KiB (0%)
Language : English
Default : No
Forced : No
Menu
00:00:00.000 : en:Madam Serena
00:08:17.205 : en:"I'm Back!"
00:15:17.541 : en:Drumbeats
00:20:29.019 : en:Bats in the Attic
00:28:11.189 : en:In the Jungle
00:33:07.110 : en:A Really Weird Game
00:41:06.755 : en:Digging Out the Past
00:45:01.323 : en:Start
00:48:23.358 : en:It Isn't Thunder
00:55:13.018 : en:Van Pelt
01:00:24.787 : en:Much Faster Than Bamboo
01:08:21.138 : en:His Fangs Are Sharp
01:16:12.609 : en:Monkeys
01:23:27.585 : en:A Tiny Bite
01:28:55.955 : en:Peter Cheats
01:34:51.268 : en:Panic

[Профиль] [ЛС]
Показать сообщения:    

Текущее время: Сегодня 08:10

Часовой пояс: GMT



Вы не можете начинать темы
Вы не можете отвечать на сообщения
Вы не можете редактировать свои сообщения
Вы не можете удалять свои сообщения
Вы не можете голосовать в опросах
Вы не можете прикреплять файлы к сообщениям
Вы не можете скачивать файлы