Джордано Бруно (Владимир Гончаров) [1984, мультфильм, VHSRip]

 
Автор Сообщение

TorrentFilm ®

Пол:

Стаж: 2 года

Сообщений: 7741



Награды: Нет

Торрент-статистика

Создавать темы 18-Июн-2015 14:23

[Цитировать]

Джордано Бруно
Страна: СССР
Производство: Киевнаучфильм
Жанр: мультфильм
Продолжительность: 00:09:58
Год выпуска: 1984
Русские субтитры: нет
Режиссёр: Владимир Гончаров
Роли озвучивали: А. Ганинский, Богдан Ступка
Описание: История, описанная в мультфильме, произошла очень давно, еще в 16 веке. В то время жил и творил, никому не известный исследователь небесных просторов, а именно космоса. Джордано Бруно был новатором своего времени, занимался изучением звезд, планет и всех небесных тел, который находятся вокруг нашей земли. Дело, которым занимался Джордано Бруно, в то время предавалось жестокому гонению, оно считалось неправильным, ведь тогда человечество еще считало, что мир стоит на трех китах, которые в свою очередь стоят на огромной черепахе. В жизни нашего героя было достаточно много достойных поступков, которые даже можно назвать героическими. Нынешнему человеку и в голову бы не пришло, что такие великие открытия могут постегать запреты, ведь то чем занимался Джордано Бруно, позволило человечеству осознать и начать изучать очень важные факты собственного происхождении и о настоящем течении дел. О том, что нас окружает загадочная и не предсказуемая вселенная, что помимо нашей солнечной системы существуют еще много таких же, и что мы возможно не одни, что возможно, где то существует еще одна такая же планета Земля.
Кинопоиск
Качество: VHSRip
Формат: AVI
Видео: 720x544 (1.32:1), 25 fps, XviD MPEG-4 ~1991 kbps avg, 0.203 bit/pixel
Аудио: 44.1 kHz, MPEG Layer 3, 2 ch, ~128.00 kbps avg
Субтитры: Отсутствуют

Подробные технические данные

GeneralComplete name : E:\1\мультики\Джордано Бруно 1984.aviFormat : AVIFormat/Info : Audio Video InterleaveFile size : 152 MiBDuration : 9mn 58sOverall bit rate : 2 129 KbpsWriting application : VirtualDubMod 1.5.10.3 | www.virtualdub-fr.org || (build 2550/release)Writing library : VirtualDubMod build 2550/release
VideoID : 0Format : MPEG-4 VisualFormat profile : Advanced Simple@L5Format settings, BVOP : 2Format settings, QPel : NoFormat settings, GMC : No warppointsFormat settings, Matrix : Default (H.263)Codec ID : XVIDCodec ID/Hint : XviDDuration : 9mn 58sBit rate : 1 991 KbpsWidth : 720 pixelsHeight : 544 pixelsDisplay aspect ratio : 4:3Frame rate : 25.000 fpsColor space : YUVChroma subsampling : 4:2:0Bit depth : 8 bitsScan type : ProgressiveCompression mode : LossyBits/(Pixel*Frame) : 0.203Stream size : 142 MiB (94%)Writing library : XviD 73
AudioID : 1Format : MPEG AudioFormat version : Version 1Format profile : Layer 3Codec ID : 55Codec ID/Hint : MP3Duration : 9mn 58sBit rate mode : ConstantBit rate : 128 KbpsChannel count : 2 channelsSampling rate : 44.1 KHzCompression mode : LossyStream size : 9.13 MiB (6%)Alignment : Split accross interleavesInterleave, duration : 40 ms (1.00 video frame)Interleave, preload duration : 500 msWriting library : LAME3.99rEncoding settings : -m s -V 4 -q 2 -lowpass 17 -b 128

Скриншоты

[Профиль] [ЛС]
Кто просматривает тему:

Форум Тема Автор Размер
BBC BBC: Истории о древней земле. Знакомьтесь с предками / Stories from the Dark Earth. Meet the Ancestors [серии 1-4 из 4] (Бен Кричтон, Вилл Ярсли, Марк Вильямс, Джорджина Лес... skorpionN 5.56 GB
Фильмы (HD Rips | 720p, 1080p) Афера / The Sting (Джордж Рой Хилл / George Roy Hill) [1973, драма, комедия, криминал, BDRip, 720p] Dub + MVO + AVO + Original (Eng) + Subs (Rus, Eng) sergej644 7.78 GB
Зарубежные Бeзyмный Mакc: Дopога яpоcти в 3Д / Мad Мaх: Furу Rоаd 3D (Джордж Миллер / George Miller) [2015, Боевик, Фантастика, Приключения, BDrip, 1080p] OverUnder / Вертикальная стереопара TorrentFilm 19.57 GB
Фильмы (HD DVD, Blu-ray и BDRemux) Банда защитников / Vigilante Force (Джордж Эрмитаж / George Armitage) [1976, США, боевик, драма, криминал, приключения, BDRemux 1080p] DVO (НТВ+) + Sub Eng + Original Eng Russian Mafia 16.76 GB
Фильмы (HD Rips | 720p, 1080p) Банда защитников / Vigilante Force (Джордж Эрмитаж / George Armitage) [1976, США, боевик, драма, криминал, приключения, BDRip 720p] DVO (НТВ+) + Sub Eng + Original Eng Russian Mafia 6.21 GB
Фильмы 2011 года Банда защитников / Vigilante Force (Джордж Эрмитаж) [1976 г., боевик, триллер, драма, криминал, приключения, HDRip] [DVO (НТВ+)] Bathory 1.46 GB
Боевики, детективы, триллеры Без единого свидетеля (Джордж Элизабет) [2015, Полицейский детектив, аудиокнига, MP3, 96 kbps, Ерисанова Ирина] Magnat 1.23 GB
Фильмы (HD DVD, Blu-ray и BDRemux) Безумный Макс / Mad Max (Джордж Миллер / George Miller) [1979, Австралия, боевик, триллер, приключения, Blu-ray Disc 1080p] sergej644 21.48 GB
Показать сообщения:    

Текущее время: Сегодня 07:14

Часовой пояс: GMT



Вы не можете начинать темы
Вы не можете отвечать на сообщения
Вы не можете редактировать свои сообщения
Вы не можете удалять свои сообщения
Вы не можете голосовать в опросах
Вы не можете прикреплять файлы к сообщениям
Вы не можете скачивать файлы