Джон Уик 3 / John Wick: Chapter 3 - Parabellum (Чад Стахелски) [2019,Боевик, триллер, криминал, BDRip 1080р] [iTunes+HDRezka+Yesarev+Ukr+ENG]+[Subs Rus+Ukr+ENG]

 
Author Message

Враг Нароода ®

Gender:

Longevity: 4 years 6 months

Posts: 308



: 2 ()

Mega Seeder 1 (1) За внесенный вклад в развитие сайта (1)
Торрент-статистика

Post 27-Aug-2019 10:07

[Quote]

--Джон Уик 3 / John Wick: Chapter 3 - Parabellum -- --Год выпуска: 2019
Выпущено: США , Summit Entertainment, 87Eleven, Lionsgate
Жанр: Боевик, триллер, криминал
Продолжительность:02:10:45--Озвучка #1: Дублированный - iTunes - Русский
Озвучка #2: Профессиональный многоголосый - HDRezka Studio - Русский
Озвучка #3: Авторский (одноголосый, закадровый) - Д.Есарев - Русский
Озвучка #4: Дублированный - iTunes - Украинский
Озвучка #5: Профессиональный многоголосый -Английский - Оригинал
Субтитры: Русские, Украинские,English, English SDH
--Релиз Без Рекламы --MDB 6.5 --Режиссеры:
Майкл Догерти--В ролях: Кайл Чандлер, Вера Фармига, Милли Бобби Браун, Кэн Ватанабэ, Цзыи Чжан, Брэдли Уитфорд, Салли Хокинс, Чарльз Дэнс, Томас Миддлдитч, Аиша Хайндс, О`Ши Джексон мл., Дэвид Стрэтэйрн, Энтони Рамос, Элизабет Ладлоу, Джонатан Ховард, Си Си Эйч Паундер, Джо Мортон, Тайлер Крумли, Келли Гарнер-- История рассказывает о героических усилиях криптозоологического агентства «Монарх» по сдерживанию гигантских монстров. В этот раз против могучего Годзиллы выступают Мотра, Родан и ультимативный кайдзю — трёхголовый монстр Кинг Гидора. Когда эти древние суперхищники, со временем превратившиеся в полузабытые мифы, восстают снова, чтобы сойтись в схватке, человечеству остаётся отойти в сторонку и постараться не погибнуть.-- --Качество : BDRip - HEVC 10bit - 1080p
Формат:MKV
Видео кодек: H265
Видео: 6966Кбит/сек,1920х800(2.40.1),в 23.976кадр/сек, HEVC (Main10@L4.1@Main)--Аудио Кодек:Аудио Кодек:AAC-AC3 - DTS
Аудио #1: DUB -Rus- iTunes@DD5.1 AAC, 478 Kbps, 48.0 KHz, 6 ch- Русский
Аудио #2: MVO HDRezka Studio @DD5.1 AAC, 301 Kbps, 48.0 KHz, 6 ch - Русский
Аудио #3:AVO Д.Есарев @DD5.1 AAC, 486 Kbps, 48.0 KHz, 6 ch - Русский
Аудио #4: DUB Ukr-Line @DD5.1 AAC, 300 Kbps, 48.0 KHz, 6 ch - Украинский
Аудио #5: Original@DD5.1 AC3 ,640 Kbps, 48.0 KHz, 6 ch - - English
Аудио #5: Original@ DTS -HD Master Audio 3980 Kbps, 48.0 KHz, 6 ch - - English--

Доп. информация:

Звуковая дорожка сделана путем наложения чистого голоса озвучивателей на центральный канал оригинальной дорожки. Качество идентично звуковой дорожке.
--

MediaInfo

Общее
Уникальный идентификатор : 278519746380563294490420216519078037181 (0xD188F3B406F44232D1B6D014A08DC6BD)
Полное имя : C:\Nikolai.Baranov & PIRATIYA\John.Wick.Chapter.3.Parabellum.2019.HEVC- 10Bit_Н265_DD5.1_N.B_BDRip.1080p.3хRus_Ukr_Eng\John.Wick.Chapter.3.Parabellum.2019.HEVC- 10Bit_Н265_DD5.1_N.B_BDRip.1080p.3хRus_Ukr_Eng.mkv
Формат : Matroska
Версия формата : Version 4
Размер файла : 12,0 Гбайт
Продолжительность : 2 ч. 11 м.
Режим общего битрейта : Переменный
Общий поток : 13,2 Мбит/сек
Название фильма : John Wick Chapter 3 Parabellum 2019 BDRip 1080p @ Nikolai.Baranov & PIRATIYA
Дата кодирования : UTC 2019-08-26 16:56:19
Программа кодирования : mkvmerge v37.0.0 ('Leave It') 64-bit
Библиотека кодирования : libebml v1.3.9 + libmatroska v1.5.2
Видео
Идентификатор : 1
Формат : HEVC
Формат/Информация : High Efficiency Video Coding
Профиль формата : Main 10@L4.1@High
Идентификатор кодека : V_MPEGH/ISO/HEVC
Продолжительность : 2 ч. 11 м.
Битрейт : 6966 Кбит/сек
Ширина : 1920 пикселей
Высота : 800 пикселей
Соотношение сторон : 2,40:1
Режим частоты кадров : Постоянный
Частота кадров : 23,976 (24000/1001) кадра/сек
Цветовое пространство : YUV
Субдискретизация насыщенности : 4:2:0
Битовая глубина : 10 бит
Бит/(Пиксели*Кадры) : 0.189
Размер потока : 6,38 Гбайт (53%)
Заголовок : John.Wick.Chapter.3.Parabellum.2019.HEVC- 10Bit_Н265_DD5.1_N.B_BDRip.1080p.3хRus_Ukr_Eng
Язык : Russian
Default : Да
Forced : Нет
Цветовой диапазон : Limited
Основные цвета : BT.709
Характеристики трансфера : BT.709
Коэффициенты матрицы : BT.709
Аудио #1
Идентификатор : 8
Формат : AAC LC
Формат/Информация : Advanced Audio Codec Low Complexity
Идентификатор кодека : A_AAC-2
Продолжительность : 2 ч. 11 м.
Битрейт : 478 Кбит/сек
Каналы : 6 каналов
ChannelLayout : C L R Ls Rs LFE
Частота : 48,0 КГц
Частота кадров : 46,875 кадров/сек (1024 SPF)
Метод сжатия : С потерями
Размер потока : 448 Мбайт (4%)
Заголовок : DUB -Rus- iTunes@DD5.1 AAC, 478 Kbps, 48.0 KHz, 6 ch
Язык : Russian
Default : Да
Forced : Нет
Аудио #2
Идентификатор : 9
Формат : AAC LC
Формат/Информация : Advanced Audio Codec Low Complexity
Идентификатор кодека : A_AAC-2
Продолжительность : 2 ч. 11 м.
Битрейт : 301 Кбит/сек
Каналы : 6 каналов
ChannelLayout : C L R Ls Rs LFE
Частота : 48,0 КГц
Частота кадров : 46,875 кадров/сек (1024 SPF)
Метод сжатия : С потерями
Размер потока : 282 Мбайт (2%)
Заголовок : MVO HDRezka Studio @DD5.1 AAC, 301 Kbps, 48.0 KHz, 6 ch
Язык : Russian
Default : Нет
Forced : Нет
Аудио #3
Идентификатор : 10
Формат : AAC LC
Формат/Информация : Advanced Audio Codec Low Complexity
Идентификатор кодека : A_AAC-2
Продолжительность : 2 ч. 11 м.
Битрейт : 486 Кбит/сек
Каналы : 6 каналов
ChannelLayout : C L R Ls Rs LFE
Частота : 48,0 КГц
Частота кадров : 46,875 кадров/сек (1024 SPF)
Метод сжатия : С потерями
Размер потока : 456 Мбайт (4%)
Заголовок : AVO Yesarev @DD5.1 AAC, 486 Kbps, 48.0 KHz, 6 ch
Язык : Russian
Default : Нет
Forced : Нет
Аудио #4
Идентификатор : 11
Формат : AAC LC
Формат/Информация : Advanced Audio Codec Low Complexity
Идентификатор кодека : A_AAC-2
Продолжительность : 2 ч. 11 м.
Битрейт : 299 Кбит/сек
Каналы : 6 каналов
ChannelLayout : C L R Ls Rs LFE
Частота : 48,0 КГц
Частота кадров : 46,875 кадров/сек (1024 SPF)
Метод сжатия : С потерями
Размер потока : 281 Мбайт (2%)
Заголовок : DUB Ukr-Line @DD5.1 AAC, 300 Kbps, 48.0 KHz, 6 ch
Язык : Ukrainian
Default : Нет
Forced : Нет
Аудио #5
Идентификатор : 12
Формат : AC-3
Формат/Информация : Audio Coding 3
Коммерческое название : Dolby Digital
Идентификатор кодека : A_AC3
Продолжительность : 2 ч. 11 м.
Вид битрейта : Постоянный
Битрейт : 640 Кбит/сек
Каналы : 6 каналов
ChannelLayout : L R C LFE Ls Rs
Частота : 48,0 КГц
Частота кадров : 31,250 кадров/сек (1536 SPF)
Битовая глубина : 16 бит
Метод сжатия : С потерями
Размер потока : 600 Мбайт (5%)
Заголовок : Original@DD5.1 AC3 ,640 Kbps, 48.0 KHz, 6 ch
Язык : English
ServiceKind/String : Complete Main
Default : Нет
Forced : Нет
Аудио #6
Идентификатор : 13
Формат : DTS XLL
Формат/Информация : Digital Theater Systems
Коммерческое название : DTS-HD Master Audio
Идентификатор кодека : A_DTS
Продолжительность : 2 ч. 11 м.
Вид битрейта : Переменный
Битрейт : 3980 Кбит/сек
Каналы : 6 каналов
ChannelLayout : C L R Ls Rs LFE
Частота : 48,0 КГц
Частота кадров : 93,750 кадра/сек (512 SPF)
Битовая глубина : 24 бит
Метод сжатия : Без потерь
Задержка видео : 83 мс.
Размер потока : 3,64 Гбайт (30%)
Заголовок : Original@ DTS -HD Master Audio 3980 Kbps, 48.0 KHz, 6 ch
Язык : English
Default : Нет
Forced : Нет
Текст #1
Идентификатор : 2
Формат : UTF-8
Идентификатор кодека : S_TEXT/UTF8
Идентификатор кодека/Информация : UTF-8 Plain Text
Продолжительность : 1 ч. 34 м.
Битрейт : 1 бит/сек
ElementCount : 24
Размер потока : 809 байт (0%)
Заголовок : Rus-Forced
Язык : Russian
Default : Да
Forced : Да
Текст #2
Идентификатор : 3
Формат : UTF-8
Идентификатор кодека : S_TEXT/UTF8
Идентификатор кодека/Информация : UTF-8 Plain Text
Продолжительность : 1 ч. 34 м.
Битрейт : 2 бит/сек
ElementCount : 24
Размер потока : 1,47 Кбайт (0%)
Заголовок : Rus-Forced (colored)
Язык : Russian
Default : Нет
Forced : Нет
Текст #3
Идентификатор : 4
Формат : UTF-8
Идентификатор кодека : S_TEXT/UTF8
Идентификатор кодека/Информация : UTF-8 Plain Text
Продолжительность : 1 ч. 34 м.
Битрейт : 1 бит/сек
ElementCount : 24
Размер потока : 842 байт (0%)
Заголовок : Ukr-Forced
Язык : Ukrainian
Default : Нет
Forced : Нет
Текст #4
Идентификатор : 5
Формат : UTF-8
Идентификатор кодека : S_TEXT/UTF8
Идентификатор кодека/Информация : UTF-8 Plain Text
Продолжительность : 1 ч. 34 м.
Битрейт : 2 бит/сек
ElementCount : 24
Размер потока : 1,50 Кбайт (0%)
Заголовок : Ukr-Forced (colored)
Язык : Ukrainian
Default : Нет
Forced : Нет
Текст #5
Идентификатор : 6
Формат : UTF-8
Идентификатор кодека : S_TEXT/UTF8
Идентификатор кодека/Информация : UTF-8 Plain Text
Продолжительность : 1 ч. 34 м.
Битрейт : 0 бит/сек
ElementCount : 33
Размер потока : 667 байт (0%)
Заголовок : Eng-Forced
Язык : English
Default : Нет
Forced : Нет
Текст #6
Идентификатор : 7
Формат : UTF-8
Идентификатор кодека : S_TEXT/UTF8
Идентификатор кодека/Информация : UTF-8 Plain Text
Продолжительность : 1 ч. 59 м.
Битрейт : 24 бит/сек
ElementCount : 764
Размер потока : 21,3 Кбайт (0%)
Заголовок : Eng-Full
Язык : English
Default : Нет
Forced : Нет
Текст #7
Идентификатор : 14
Формат : UTF-8
Идентификатор кодека : S_TEXT/UTF8
Идентификатор кодека/Информация : UTF-8 Plain Text
Продолжительность : 2 ч. 1 м.
Битрейт : 32 бит/сек
ElementCount : 1163
Размер потока : 29,2 Кбайт (0%)
Заголовок : Original - SDH
Язык : English
Default : Нет
Forced : Нет
Меню
00:00:00.000 : :Chapter 1
00:05:32.374 : :Chapter 2
00:20:17.591 : :Chapter 3
00:31:45.570 : :Chapter 4
00:41:08.257 : :Chapter 5
00:50:46.669 : :Chapter 6
01:03:15.667 : :Chapter 7
01:14:46.857 : :Chapter 8
01:23:05.105 : :Chapter 9
01:28:51.243 : :Chapter 10
01:49:32.316 : :Chapter 11
02:02:16.996 : :Chapter 12
--

Скриншоты

-- -- -- --Релиз от: Nikolai.Baranov & PIRATIYA . Поблагодарить:
ЯД: 410017546713876
-- -- -- --Время раздачи : 24/7--
[Profile] [PM]
Кто просматривает тему:

Display posts from previous:    

The time now is: Today 04:39

All times are GMT



You cannot post new topics in this forum
You cannot reply to topics in this forum
You cannot edit your posts in this forum
You cannot delete your posts in this forum
You cannot vote in polls in this forum
You cannot attach files in this forum
You cannot download files in this forum