Джон Картер в 3Д / John Carter 3D (Эндрю Стэнтон / Andrew Stanton) [2012, фантастика, фэнтези, боевик, приключения, BDRip-AVC] Dub BD EUR + Dub Ukr + Original Eng + Sub Rus, Ukr, Eng Half OverUnder / Вертикальная анаморфная стереопара

 
Автор Сообщение

BOSS ®

Пол:

Стаж: 2 года 1 месяц

Сообщений: 3744

Откуда: ODESSA



Награды: 20 (Подробнее)

Top Releaser 4 (Количество: 1) Top Keeper 2 (Количество: 1) За внесенный вклад в развитие сайта (Количество: 1)
Торрент-статистика

Создавать темы 07-Окт-2015 19:32

[Цитировать]

Джон Картер / John Carter- Год выпуска: 2012
Страна: США
Жанр: фантастика, фэнтези, боевик, приключения
Продолжительность: 02:12:01
Перевод: Профессиональный (дублированный) BD EUR
Субтитры: русские, украинские, английские-Режиссер: Эндрю Стэнтон / Andrew Stanton
В ролях: Тейлор Китч, Линн Коллинз, Марк Стронг, Доминик Уэст, Брайан Крэнстон, Саманта Мортон, Уиллем Дефо, Томас Хейден Чёрч, Кирен Хайдз, Джеймс Пьюрфой, Полли Уокер, Дэрил Сабара.
Описание: Джон Картер прошёл всю гражданскую войну и сумел выжить в этой мясорубке. Решив завершить с карьерой военного он становится искателем золота как и многие в то непростое время. Но однажды за ним приходят армейские чины, которым он срочно понадобился, тогда Джон убегая от них попадает в странную пещеру. Его клонит в сон, не успев толком заснуть он просыпается и отделяется от своего тела, теряя сознание. Когда он очнулся то был совершенно гол и находился в незнакомой местности, как он понял позже на Марсе. Попробовав встать он совершил чудовищный по земным меркам прыжок на несколько десятков метров, это его сильно удивило. С трудом научившись передвигаться Картер двинулся в путь по неведомой территории. Буквально через несколько часов он встретил группу туземцев с весьма странной внешностью.-Качество: BDRip
Контейнер: MKV
Формат 3D: Half OverUnder / Вертикальная анаморфная стереопара
Видео кодек: x264
Аудио кодек: AC3
Видео: 1920x1080 (16:9), 23.976 fps, x264@L4.1 ~14500 kbps avg
Аудио 1: Russian 48 kHz, AC3, 3/2 (L,C,R,l,r) + LFE ch, 640.00 kbps avg | BD EUR
Аудио 2: Ukrainian 48 kHz, AC3, 3/2 (L,C,R,l,r) + LFE ch, 640.00 kbps avg | BD EUR
Аудио 3: English 48 kHz, AC3, 3/2 (L,C,R,l,r) + LFE ch, 640.00 kbps avg | Original
Медиаинфо">

Скриншоты Медиаинфо


Общее
Формат : Matroska
Версия формата : Version 4 / Version 2
Размер файла : 15,1 Гбайт
Продолжительность : 2 ч. 12 м.
Общий поток : 16,4 Мбит/сек
Название фильма : John Carter 3D (2012) by HDMaNiAcS
Дата кодирования : UTC 2010-02-22 21:41:31
Программа кодирования : mkvmerge v5.9.0 ('On The Loose') built on Dec 9 2012 15:37:01
Библиотека кодирования : libebml v1.3.0 + libmatroska v1.4.0
Видео
Идентификатор : 1
Формат : AVC
Формат/Информация : Advanced Video Codec
Профиль формата : High@L4.1
Параметр CABAC формата : Да
Параметр ReFrames формата : 4 кадра
Идентификатор кодека : V_MPEG4/ISO/AVC
Продолжительность : 2 ч. 12 м.
Битрейт : 14,5 Мбит/сек
Ширина : 1920 пикселей
Высота : 1080 пикселей
Соотношение сторон : 16:9
Режим частоты кадров : Постоянный
Частота кадров : 23,976 кадра/сек
Цветовое пространство : YUV
Субдискретизация насыщенности : 4:2:0
Битовая глубина : 8 бит
Тип развёртки : Прогрессивная
Бит/(Пиксели*Кадры) : 0.292
Размер потока : 13,1 Гбайт (86%)
Заголовок : John Carter 3D (2012)
Библиотека кодирования : x264 core 124 r2197 69a0443
Настройки программы : cabac=1 / ref=4 / deblock=1:-3:-3 / analyse=0x3:0x113 / me=esa / subme=10 / psy=1 / psy_rd=0.95:0.15 / mixed_ref=1 / me_range=32 / chroma_me=1 / trellis=2 / 8x8dct=1 / cqm=0 / deadzone=21,11 / fast_pskip=0 / chroma_qp_offset=-3 / threads=12 / sliced_threads=0 / nr=0 / decimate=0 / interlaced=0 / bluray_compat=0 / constrained_intra=0 / bframes=7 / b_pyramid=2 / b_adapt=2 / b_bias=0 / direct=3 / weightb=1 / open_gop=0 / weightp=2 / keyint=250 / keyint_min=23 / scenecut=40 / intra_refresh=0 / rc_lookahead=120 / rc=2pass / mbtree=1 / bitrate=14500 / ratetol=1.0 / qcomp=0.70 / qpmin=0 / qpmax=69 / qpstep=4 / cplxblur=20.0 / qblur=0.5 / ip_ratio=1.40 / aq=2:0.70 / zones=177505,189881,b=0.4
Язык : English
Default : Да
Forced : Нет
Аудио #1
Идентификатор : 2
Формат : AC-3
Формат/Информация : Audio Coding 3
Расширение режима : CM (complete main)
Параметр Endianness формата : Big
Идентификатор кодека : A_AC3
Продолжительность : 2 ч. 12 м.
Вид битрейта : Постоянный
Битрейт : 640 Кбит/сек
Каналы : 6 каналов
Расположение каналов : Front: L C R, Side: L R, LFE
Частота : 48,0 КГц
Битовая глубина : 16 бит
Метод сжатия : С потерями
Размер потока : 604 Мбайт (4%)
Заголовок : AC3 / 5.1 ch / 640 kbps / Русский дубляж BD EUR
Язык : Russian
Default : Да
Forced : Нет
Аудио #2
Идентификатор : 3
Формат : AC-3
Формат/Информация : Audio Coding 3
Расширение режима : CM (complete main)
Параметр Endianness формата : Big
Идентификатор кодека : A_AC3
Продолжительность : 2 ч. 12 м.
Вид битрейта : Постоянный
Битрейт : 640 Кбит/сек
Каналы : 6 каналов
Расположение каналов : Front: L C R, Side: L R, LFE
Частота : 48,0 КГц
Битовая глубина : 16 бит
Метод сжатия : С потерями
Размер потока : 604 Мбайт (4%)
Заголовок : AC3 / 5.1 ch / 640 kbps / Украинский дубляж BD EUR
Язык : Ukrainian
Default : Нет
Forced : Нет
Аудио #3
Идентификатор : 4
Формат : AC-3
Формат/Информация : Audio Coding 3
Расширение режима : CM (complete main)
Параметр Endianness формата : Big
Идентификатор кодека : A_AC3
Продолжительность : 2 ч. 12 м.
Вид битрейта : Постоянный
Битрейт : 640 Кбит/сек
Каналы : 6 каналов
Расположение каналов : Front: L C R, Side: L R, LFE
Частота : 48,0 КГц
Битовая глубина : 16 бит
Метод сжатия : С потерями
Размер потока : 604 Мбайт (4%)
Заголовок : AC3 / 5.1 ch / 640 kbps / Английский original BD EUR
Язык : English
Default : Нет
Forced : Нет
Текст #1
Идентификатор : 5
Формат : UTF-8
Идентификатор кодека : S_TEXT/UTF8
Идентификатор кодека/Информация : UTF-8 Plain Text
Заголовок : Forced Voronine
Язык : Russian
Default : Да
Forced : Нет
Текст #2
Идентификатор : 6
Формат : UTF-8
Идентификатор кодека : S_TEXT/UTF8
Идентификатор кодека/Информация : UTF-8 Plain Text
Заголовок : Forced BD EUR
Язык : Russian
Default : Нет
Forced : Нет
Текст #3
Идентификатор : 7
Формат : UTF-8
Идентификатор кодека : S_TEXT/UTF8
Идентификатор кодека/Информация : UTF-8 Plain Text
Заголовок : Forced
Язык : Russian
Default : Нет
Forced : Нет
Текст #4
Идентификатор : 8
Формат : UTF-8
Идентификатор кодека : S_TEXT/UTF8
Идентификатор кодека/Информация : UTF-8 Plain Text
Заголовок : Full Voronine
Язык : Russian
Default : Нет
Forced : Нет
Текст #5
Идентификатор : 9
Формат : UTF-8
Идентификатор кодека : S_TEXT/UTF8
Идентификатор кодека/Информация : UTF-8 Plain Text
Заголовок : Full BD EUR
Язык : Russian
Default : Нет
Forced : Нет
Текст #6
Идентификатор : 10
Формат : UTF-8
Идентификатор кодека : S_TEXT/UTF8
Идентификатор кодека/Информация : UTF-8 Plain Text
Заголовок : Forced
Язык : Ukrainian
Default : Нет
Forced : Нет
Текст #7
Идентификатор : 11
Формат : UTF-8
Идентификатор кодека : S_TEXT/UTF8
Идентификатор кодека/Информация : UTF-8 Plain Text
Заголовок : Full
Язык : Ukrainian
Default : Нет
Forced : Нет
Текст #8
Идентификатор : 12
Формат : UTF-8
Идентификатор кодека : S_TEXT/UTF8
Идентификатор кодека/Информация : UTF-8 Plain Text
Заголовок : Forced
Язык : English
Default : Нет
Forced : Нет
Текст #9
Идентификатор : 13
Формат : UTF-8
Идентификатор кодека : S_TEXT/UTF8
Идентификатор кодека/Информация : UTF-8 Plain Text
Заголовок : Full 1
Язык : English
Default : Нет
Forced : Нет
Текст #10
Идентификатор : 14
Формат : UTF-8
Идентификатор кодека : S_TEXT/UTF8
Идентификатор кодека/Информация : UTF-8 Plain Text
Заголовок : Full 2
Язык : English
Default : Нет
Forced : Нет
Текст #11
Идентификатор : 15
Формат : UTF-8
Идентификатор кодека : S_TEXT/UTF8
Идентификатор кодека/Информация : UTF-8 Plain Text
Заголовок : SDH 1
Язык : English
Default : Нет
Forced : Нет
Текст #12
Идентификатор : 16
Формат : UTF-8
Идентификатор кодека : S_TEXT/UTF8
Идентификатор кодека/Информация : UTF-8 Plain Text
Заголовок : SDH 2
Язык : English
Default : Нет
Forced : Нет
Текст #13
Идентификатор : 17
Формат : UTF-8
Идентификатор кодека : S_TEXT/UTF8
Идентификатор кодека/Информация : UTF-8 Plain Text
Заголовок : SDH Color
Язык : English
Default : Нет
Forced : Нет
Меню
00:00:00.000 : en:00:00:00.000
00:04:01.241 : en:00:04:01.241
00:10:22.914 : en:00:10:22.914
00:20:08.791 : en:00:20:08.791
00:27:05.207 : en:00:27:05.207
00:37:29.164 : en:00:37:29.164
00:47:43.569 : en:00:47:43.569
00:58:51.653 : en:00:58:51.653
01:07:42.433 : en:01:07:42.433
01:15:01.038 : en:01:15:01.038
01:22:34.199 : en:01:22:34.199
01:30:29.799 : en:01:30:29.799
01:37:02.066 : en:01:37:02.066
01:46:52.031 : en:01:46:52.031
01:53:48.989 : en:01:53:48.989
02:02:54.534 : en:02:02:54.534
[Профиль] [ЛС]
Кто просматривает тему:

Показать сообщения:    

Текущее время: Сегодня 11:52

Часовой пояс: GMT



Вы не можете начинать темы
Вы не можете отвечать на сообщения
Вы не можете редактировать свои сообщения
Вы не можете удалять свои сообщения
Вы не можете голосовать в опросах
Вы не можете прикреплять файлы к сообщениям
Вы не можете скачивать файлы