Джонни Д. / Public Enemies (Майкл Манн / Michael Mann) [2009, США, Драма, криминал, биография, история, BDRip] Dub

 
Автор Сообщение

painkiller ®

Стаж: 2 года 3 месяца

Сообщений: 582



Награды: Нет

Торрент-статистика

Создавать темы 14-Авг-2014 09:11

[Цитировать]

Джонни Д. / Public Enemies- Год выпуска: 2009
Выпущено: США / Universal Pictures, Relativity Media
Жанр: драма, криминал, биография, история
Продолжительность: 02:19:43
Перевод: Профессиональный (полное дублирование) BD CEE
Cубтитры: нет-Режиссер:
Майкл Манн / Michael Mann-В ролях:
Джонни Депп (John Dillinger), Кристиан Бэйл (Melvin Purvis), Марион Котийяр (Billie Frechette), Стивен Лэнг (Charles Winstead), Джейсон Кларк («Red» Hamilton), Стивен Грэм (Baby Face Nelson), Билли Крудап (J. Edgar Hoover), Джон Ортис (Phil D'Andrea), Бранка Катич (Anna Sage), Стивен Дорфф (Homer Van Meter)-Описание:
Сюжет фильма повествует о легендарном грабителе банков Джоне Диллинджере. Дерзкие нападения сделали его выдающимся героем для всех угнетенных и главной мишенью для лучшего агента ФБР Мелвина Первиса и директора бюро Джона Эдгара Гувера. Никто не мог остановить банду Диллинджера. Ни одна тюрьма не могла его удержать. Обаяние и отчаянные побеги прославляли преступника в обществе, считавшем банки главной причиной Великой депрессии.
В то время, как приключения лихой банды, к которой примкнули Малыш Нельсон и Элвин Карпис, вдохновляли обозленных граждан, Гувер решил воспользоваться случаем и превратить Бюро расследований в главную правоохранительную организацию страны — ФБР. Он сделал Диллинджера самым опасным врагом Америки, а спасителем нарек Первиса, гордость Федерального бюро.-Релиз группы | IMDB | КиноПоиск | Сэмпл |-Качество: BDRip [BDRemux]
Формат: AVI
Видео: 720x304 (2.37:1), 23.976 fps, XviD build 73 ~1293 kbps avg, 0.25 bit/pixel
Аудио: 48 kHz, AC3 Dolby Digital, 2/0 (L,R) ch, ~192.00 kbps avg
-

Скриншоты

MediaInfo

General
Complete name                            : D:\Djonny_D._2009_BDRip_by_Dalemake.avi
Format                                   : AVI
Format/Info                              : Audio Video Interleave
File size                                : 1.46 GiB
Duration                                 : 2h 19mn
Overall bit rate                         : 1 495 Kbps
Writing application                      : VirtualDubMod 1.5.10.3 | www.virtualdub-fr.org || (build 2550/release)
Writing library                          : VirtualDubMod build 2550/release
Video
ID                                       : 0
Format                                   : MPEG-4 Visual
Format profile                           : Advanced Simple@L5
Format settings, BVOP                    : 1
Format settings, QPel                    : No
Format settings, GMC                     : No warppoints
Format settings, Matrix                  : Custom
Codec ID                                 : XVID
Codec ID/Hint                            : XviD
Duration                                 : 2h 19mn
Bit rate                                 : 1 294 Kbps
Width                                    : 720 pixels
Height                                   : 304 pixels
Display aspect ratio                     : 2.35:1
Frame rate                               : 23.976 fps
Color space                              : YUV
Chroma subsampling                       : 4:2:0
Bit depth                                : 8 bits
Scan type                                : Progressive
Compression mode                         : Lossy
Bits/(Pixel*Frame)                       : 0.247
Stream size                              : 1.26 GiB (87%)
Writing library                          : XviD 73
Audio
ID                                       : 1
Format                                   : AC-3
Format/Info                              : Audio Coding 3
Mode extension                           : CM (complete main)
Format settings, Endianness              : Big
Codec ID                                 : 2000
Duration                                 : 2h 19mn
Bit rate mode                            : Constant
Bit rate                                 : 192 Kbps
Channel(s)                               : 2 channels
Channel positions                        : Front: L R
Sampling rate                            : 48.0 KHz
Bit depth                                : 16 bits
Compression mode                         : Lossy
Stream size                              : 192 MiB (13%)
Alignment                                : Split accross interleaves
Interleave, duration                     : 42 ms (1.00 video frame)
Interleave, preload duration             : 500 ms
-
[Профиль] [ЛС]

Создавать темы 06-Авг-2015 23:17 (спустя 11 месяцев 23 дня)

Топик был перенесен из форума Фильмы до 2014 года в форум Фильмы до 2012 года
sergej644
 

Создавать темы 12-Июн-2016 08:48 (спустя 1 год 9 месяцев)

Топик был перенесен из форума Фильмы 2011 года в форум Фильмы 2009 года
Russian Mafia
 
Кто просматривает тему:

Форум Тема Автор Размер
Боевики, детективы, триллеры Вулрич Корнелл - Ангелы Тьмы. "ДЖОННИ В ТИСКАХ" [Владимир Князев, (ЛИ), 2014 г., 192 kbps, MP3] sergej644 103 MB
Фильмы (HD DVD, Blu-ray и BDRemux) Джонни Д. / Public Enemies (2009) Blu-ray CEE 1080p | D Russian Mafia 39.01 GB
Зарубежные сериалы Мир дикого Запада / Westworld +Bonys (Сезон 1, Серия 1-10 из 10 ) (Джонатан Нолан, Джонни Кэмпбелл, Ричард Дж. Льюис) [2016, Фантастика, триллер, вестерн , HDTVRip 1080p ] [MVO] [Kravec , English +... Враг Нароода 41.91 GB
Фильмы (HD Rips | 720p, 1080p) Москва никогда не спит (Джонни О’Райлли / Johnny O\'Reilly) [2015, Россия, Ирландия, драма, комедия, триллер, WEB-DL 1080p] + Original Rus TorrentFilm 3.34 GB
Фильмы (HD Rips | 720p, 1080p) Москва никогда не спит (Джонни О’Райлли / Johnny O\'Reilly) [2015, Россия, Ирландия, драма, комедия, триллер, WEB-DL 720p] + Original Rus TorrentFilm 3.1 GB
R.G.TorrentFilm Video Москва никогда не спит (Джонни О’Райлли) [2015 г., драма, комедия, триллер, WEBRip] AleksSin 746 MB
Фильмы 2015 года Москва никогда не спит (Джонни О’Райлли) [2015, драма, комедия, триллер] WEB-DLRip | iTunes BOSS 1.46 GB
Фантастика, фэнтези Сергей Шкенев | Джонни Оклахома, или Магия массового поражения (2015) [FB2] достали все 981 KB
Показать сообщения:    

Текущее время: Сегодня 16:25

Часовой пояс: GMT



Вы не можете начинать темы
Вы не можете отвечать на сообщения
Вы не можете редактировать свои сообщения
Вы не можете удалять свои сообщения
Вы не можете голосовать в опросах
Вы не можете прикреплять файлы к сообщениям
Вы не можете скачивать файлы