Джой / Joy (2015) BDRemux 1080p от ExKinoRay | Лицензия

 
Автор Сообщение

Russian Mafia ®

Пол:

Стаж: 1 год 8 месяцев

Сообщений: 4256



Награды: 10 (Подробнее)

Mega Seeder 4 (Количество: 1) Top Releaser 4 (Количество: 1) Mega Seeder 2 (Количество: 1)
Торрент-статистика

Создавать темы 22-Апр-2016 15:27

[Цитировать]

Информация о фильме
Название: Джой
Оригинальное название: Joy
Год выхода: 2015
Жанр: Драма, комедия, биография, исторический
Режиссер: Дэвид О. Расселл
В ролях: Дженнифер Лоуренс, Роберт Де Ниро, Брэдли Купер, Эдгар Рамирес, Дайан Лэдд, Вирджиния Мэдсен, Изабелла Росселлини, Даша Поланко, Элизабет Рём, Сьюзэн Луччи, Лаура Райт, Морис Бернард, Джимми Жан-Луи, Кен Ховард, Джон Инос III, Марианн Леоне, Дрена Де Ниро, Изабелла Крамп, Эмили Нунез, Мэдисон Вульф
О фильме:
«Джой» - это волнующая история четырех поколений семьи. В центре сюжета – девушка Джой, превращающаяся в женщину, которая становится основательницей бизнес-династии и ее главой. Предательство и измена, потеря невинности и шрамы любви открывают дорогу в эмоциональную комедию о том, как стать истинным лидером семьи, и о том, как любое предприятие неумолимо сталкивается с миром коммерции. Союзники и противники меняются местами как внутри, так и вне семьи, и только внутренние переживания и неистовое воображение Джой помогают ей пройти через поджидающие ее жизненные бури. Как и все предыдущие фильмы Дэвида О. Расселла «Джой» бросает вызов жанровому кино, чтобы рассказать историю семьи, преданности и любви.

Страна: США
Студия: Annapurna Pictures, Davis Entertainment, Fox 2000 Pictures, TSG Entertainment
Продолжительность: 02:04:01
Перевод: Дублированный | Лицензия
Файл
Кодек: MPEG-4
Качество: BDRemux 1080p
Видео: 1920x1080, 24855 Kbit/s, 23.976 fps
Звук:
Аудио #1: 48.0 Khz, DTS, 5.1, 768 Kbps | Дублированный, Лицензия | RUS
Аудио #2: 48.0 Khz, DTS-HD MA, 3250 Kbps | Оригинал | ENG
Субтитры: Русские, украинские, английские

MI

Общее
Уникальный идентификатор : 193514636882226561802467349310655851231 (0x91959039FDA8E395B3140BE285926ADF)
Полное имя : F:VideoJoy..2015..BDREMUX.1080p.ExKinoRay.mkv
Формат : Matroska
Версия формата : Version 4 / Version 2
Размер файла : 25,0 Гбайт
Продолжительность : 2 ч. 4 м.
Режим общего битрейта : Переменный
Общий поток : 28,9 Мбит/сек
Название фильма : Joy..2015..BDREMUX.1080p.ExKinoRay
Дата кодирования : UTC 2016-04-22 13:27:50
Программа кодирования : mkvmerge v8.3.0 ('Over the Horizon') 64bit
Библиотека кодирования : libebml v1.3.1 + libmatroska v1.4.2
Видео
Идентификатор : 1
Формат : AVC
Формат/Информация : Advanced Video Codec
Профиль формата : High@L4.1
Параметр CABAC формата : Да
Параметр ReFrames формата : 2 кадра
Идентификатор кодека : V_MPEG4/ISO/AVC
Продолжительность : 2 ч. 4 м.
Вид битрейта : Переменный
Битрейт : 24,9 Мбит/сек
Ширина : 1920 пикселей
Высота : 1080 пикселей
Соотношение сторон : 16:9
Режим частоты кадров : Постоянный
Частота кадров : 23,976 (24000/1001) кадра/сек
Цветовое пространство : YUV
Субдискретизация насыщенности : 4:2:0
Битовая глубина : 8 бит
Тип развёртки : Прогрессивная
Бит/(Пиксели*Кадры) : 0.500
Размер потока : 21,5 Гбайт (86%)
Заголовок : Joy..2015..BDREMUX.1080p.ExKinoRay
Язык : English
Default : Нет
Forced : Нет
Аудио #1
Идентификатор : 2
Формат : DTS
Формат/Информация : Digital Theater Systems
Режим : 16
Параметр Endianness формата : Big
Идентификатор кодека : A_DTS
Продолжительность : 2 ч. 4 м.
Вид битрейта : Постоянный
Битрейт : 768 Кбит/сек
Каналы : 6 каналов
Расположение каналов : Front: L C R, Side: L R, LFE
Частота : 48,0 КГц
Частота кадров : 93,750 кадра/сек (512 spf)
Битовая глубина : 24 бит
Метод сжатия : С потерями
Размер потока : 681 Мбайт (3%)
Заголовок : DUB [License Blu-ray EUR]
Язык : Russian
Default : Да
Forced : Нет
Аудио #2
Идентификатор : 3
Формат : DTS
Формат/Информация : Digital Theater Systems
Профиль формата : MA / Core
Режим : 16
Параметр Endianness формата : Big
Идентификатор кодека : A_DTS
Продолжительность : 2 ч. 4 м.
Вид битрейта : Переменный / Постоянный
Битрейт : 3250 Кбит/сек / 1509 Кбит/сек
Каналы : 6 каналов
Расположение каналов : Front: L C R, Side: L R, LFE
Частота : 48,0 КГц
Частота кадров : 93,750 кадра/сек (512 spf)
Битовая глубина : 24 бит
Метод сжатия : Без потерь / Lossy
Размер потока : 2,82 Гбайт (11%)
Язык : English
Default : Нет
Forced : Нет
Текст #1
Идентификатор : 4
Формат : UTF-8
Идентификатор кодека : S_TEXT/UTF8
Идентификатор кодека/Информация : UTF-8 Plain Text
Продолжительность : 2 ч. 3 м.
Битрейт : 113 бит/сек
Count of elements : 1991
Размер потока : 102 Кбайт (0%)
Язык : Russian
Default : Нет
Forced : Нет
Текст #2
Идентификатор : 5
Формат : UTF-8
Идентификатор кодека : S_TEXT/UTF8
Идентификатор кодека/Информация : UTF-8 Plain Text
Продолжительность : 2 ч. 3 м.
Битрейт : 132 бит/сек
Count of elements : 2031
Размер потока : 119 Кбайт (0%)
Язык : Ukrainian
Default : Нет
Forced : Нет
Текст #3
Идентификатор : 6
Формат : UTF-8
Идентификатор кодека : S_TEXT/UTF8
Идентификатор кодека/Информация : UTF-8 Plain Text
Продолжительность : 1 ч. 55 м.
Битрейт : 85 бит/сек
Count of elements : 2008
Размер потока : 71,9 Кбайт (0%)
Язык : English
Default : Нет
Forced : Нет
Меню
00:00:00.000 : en:00:00:00.000
00:06:14.082 : en:00:06:14.082
00:09:54.093 : en:00:09:54.093
00:13:43.031 : en:00:13:43.031
00:19:26.749 : en:00:19:26.749
00:22:54.832 : en:00:22:54.832
00:28:09.313 : en:00:28:09.313
00:32:45.672 : en:00:32:45.672
00:36:53.628 : en:00:36:53.628
00:44:02.807 : en:00:44:02.807
00:48:17.019 : en:00:48:17.019
00:53:25.828 : en:00:53:25.828
00:56:57.914 : en:00:56:57.914
01:01:13.128 : en:01:01:13.128
01:06:48.671 : en:01:06:48.671
01:12:52.493 : en:01:12:52.493
01:16:56.445 : en:01:16:56.445
01:20:53.766 : en:01:20:53.766
01:26:14.211 : en:01:26:14.211
01:30:24.836 : en:01:30:24.836
01:35:51.079 : en:01:35:51.079
01:41:28.708 : en:01:41:28.708
01:47:24.355 : en:01:47:24.355
01:53:58.623 : en:01:53:58.623

Скриншоты

[Профиль] [ЛС]
Показать сообщения:    

Текущее время: Сегодня 22:32

Часовой пояс: GMT



Вы не можете начинать темы
Вы не можете отвечать на сообщения
Вы не можете редактировать свои сообщения
Вы не можете удалять свои сообщения
Вы не можете голосовать в опросах
Вы не можете прикреплять файлы к сообщениям
Вы не можете скачивать файлы