Джой / Joy (2015) BDRip 720p | Лицензия

 
Автор Сообщение

Russian Mafia ®

Пол:

Стаж: 1 год 8 месяцев

Сообщений: 4246



Награды: 10 (Подробнее)

Mega Seeder 5 (Количество: 1) Top Releaser 2 (Количество: 1) Top Releaser 5 (Количество: 1)
Торрент-статистика

Создавать темы 22-Апр-2016 10:17

[Цитировать]

Информация о фильме
Название: Джой
Оригинальное название: Joy
Год выхода: 2015
Жанр: драма, комедия, биография
Режиссер: Дэвид О. Расселл
В ролях: Дженнифер Лоуренс, Роберт Де Ниро, Брэдли Купер, Эдгар Рамирес, Даша Поланко, Вирджиния Мэдсен, Изабелла Росселлини, Изабелла Крамп, Элизабет Рём, Ондреа Гадсби
О фильме:
Волнующая история четырех поколений семьи. В центре сюжета – девушка Джой, превращающаяся в женщину, которая становится основательницей бизнес-династии и ее главой. Предательство и измена, потеря невинности и шрамы любви открывают дорогу в эмоциональную комедию о том, как стать истинным лидером семьи, и о том, как любое предприятие неумолимо сталкивается с миром коммерции. Союзники и противники меняются местами как внутри, так и вне семьи, и только внутренние переживания и неистовое воображение Джой помогают ей пройти через поджидающие ее жизненные бури.

Страна: США
Студия: Annapurna Pictures, Davis Entertainment, Fox 2000 Pictures, TSG Entertainment
Продолжительность: 02:04:00
Перевод: Профессиональный (дублированный) Blu-ray EUR
Релиз:
Файл
Формат: Matroska
Видео: 1280x692 at 23.976 fps, x264@L4.1, ~7947 kbps avg
Aудио#1: Russian: 48 kHz, DTS, 3/2 (L,C,R,l,r) + LFE ch, ~768.00 kbps avg |Дубляж, Blu-ray EUR|
Aудио#2: English: 48 kHz, DTS, 3/2 (L,C,R,l,r) + LFE ch, ~1509.00 kbps avg
Aудио#3: English: 48 kHz, AC3, 3/2 (L,C,R,l,r) + LFE ch, ~448.00 kbps avg |Descrіptіve|
Субтитры: Russian (iTunes), Ukrainian (iTunes), English (iTunes)
***Сохранены оригинальные главы как на Blu-ray.
***Видеоряд - VietHD!

MI

Общее
Уникальный идентификатор : 241344907458725431991626626091891539231 (0xB59156A2B1A647D4AA1AD513DEABBD1F)
Полное имя : Joy.2015.720p.BluRay.DTS.Rus.2xEng.HDCLUB.mkv
Формат : Matroska
Версия формата : Version 2
Размер файла : 9,43 Гбайт
Продолжительность : 2 ч. 4 м.
Общий поток : 10,9 Мбит/сек
Название фильма : Joy (2015) - Release for HDCLUB
Дата кодирования : UTC 2016-04-22 08:26:40
Программа кодирования : mkvmerge v3.4.0 ('Rapunzel') built on May 15 2010 09:38:20
Библиотека кодирования : libebml v0.8.0 + libmatroska v0.9.0
Видео
Идентификатор : 1
Формат : AVC
Формат/Информация : Advanced Video Codec
Профиль формата : High@L4.1
Параметр CABAC формата : Да
Параметр ReFrames формата : 9 кадров
Идентификатор кодека : V_MPEG4/ISO/AVC
Продолжительность : 2 ч. 4 м.
Битрейт : 7947 Кбит/сек
Ширина : 1280 пикселей
Высота : 692 пикселя
Соотношение сторон : 1,85:1
Режим частоты кадров : Постоянный
Частота кадров : 23,976 кадра/сек
Цветовое пространство : YUV
Субдискретизация насыщенности : 4:2:0
Битовая глубина : 8 бит
Тип развёртки : Прогрессивная
Бит/(Пиксели*Кадры) : 0.374
Размер потока : 6,88 Гбайт (73%)
Заголовок : Joy (2015) - Release for HDCLUB
Библиотека кодирования : x264 core 148 r2692.11 7386685 VietHD_Custom_64
Настройки программы : cabac=1 / ref=9 / deblock=1:-3:-3 / analyse=0x3:0x133 / me=umh / subme=10 / psy=1 / fade_compensate=0.00 / psy_rd=1.00:0.00 / mixed_ref=1 / me_range=24 / chroma_me=1 / trellis=2 / 8x8dct=1 / cqm=0 / deadzone=21,11 / fast_pskip=0 / chroma_qp_offset=-2 / threads=12 / lookahead_threads=2 / sliced_threads=0 / nr=0 / decimate=0 / interlaced=0 / bluray_compat=0 / constrained_intra=0 / fgo=0 / bframes=9 / b_pyramid=2 / b_adapt=2 / b_bias=0 / direct=3 / weightb=1 / open_gop=0 / weightp=2 / keyint=250 / keyint_min=23 / scenecut=40 / intra_refresh=0 / rc_lookahead=60 / rc=crf / mbtree=0 / crf=19.0000 / qcomp=0.65 / qpmin=0:0:0 / qpmax=69:69:69 / qpstep=4 / vbv_maxrate=62500 / vbv_bufsize=78125 / crf_max=0.0 / nal_hrd=none / filler=0 / ip_ratio=1.30 / pb_ratio=1.20 / aq=3:0.88 / aq-sensitivity=10.00 / aq-factor=1.00:1.00:1.00 / aq2=0 / aq3=0 / zones=0,120,crf=8/5257,5510,crf=17.5/5589,5763,crf=17.5/5834,5959,crf=17.5/6127,6407,crf=17.5/6611,6657,crf=17.5/6857,6988,crf=17.5/7560,8968,crf=16/9198,9508,crf=16/14244,14479,crf=16/15019,15073,crf=17.5/16259,16383,crf=17.5/17366,17436,crf=17.5/18325,18398,crf=14/18399,21819,crf=17.5/22041,22236,crf=17.5/23465,23706,crf=17.5/25129,25273,crf=17.5/26483,26652,crf=17.5/26653,26687,crf=14/26688,27118,crf=17.5/28086,28239,crf=17.5/28310,31556,crf=17.5/33502,34726,crf=15/38806,38950,crf=14/38951,40502,crf=17.5/43141,43429,crf=17.5/44101,44384,crf=17.5/45111,45221,crf=17.5/48583,49003,crf=15.5/54785,55361,crf=17.5/57021,57107,crf=17.5/58126,58716,crf=17.5/63364,67780,crf=17.5/74216,74688,crf=17.5/75057,75272,crf=17.5/75352,75383,crf=14/75413,79000,crf=17.5/79445,80210,crf=17.5/91366,92014,crf=17.5/92369,92810,crf=17.5/94099,95731,crf=17.5/98629,98706,crf=14/09809,110025,crf=17.5/110025,110806,crf=15.5/114665,114767,crf=15.5/115300,115340,crf=16/115580,115637,crf=16/115785,115871,crf=17.5/116180,116374,crf=17.5/116614,119326,crf=17.5/119584,119634,crf=17.5/119817,122481,crf=17.5/125488,128919,crf=17.5/129184,130652,crf=17.5/133139,134747,crf=17.5/136547,136905,crf=17.5/138887,139327,crf=16/139328,147752,crf=17.5/148980,149311,crf=17.5/157224,157608,crf=17.5/159825,161138,crf=17.5/165122,165364,crf=16.5/165891,166775,crf=17.5/166775,178403,crf=20
Язык : English
Default : Да
Forced : Нет
Цветовой диапазон : Limited
Коэффициенты матрицы : BT.709
Аудио #1
Идентификатор : 2
Формат : DTS
Формат/Информация : Digital Theater Systems
Режим : 16
Параметр Endianness формата : Big
Идентификатор кодека : A_DTS
Продолжительность : 2 ч. 4 м.
Вид битрейта : Постоянный
Битрейт : 768 Кбит/сек
Каналы : 6 каналов
Расположение каналов : Front: L C R, Side: L R, LFE
Частота : 48,0 КГц
Битовая глубина : 24 бит
Метод сжатия : С потерями
Размер потока : 681 Мбайт (7%)
Заголовок : DTS 5.1 @ 768 kbps - DUB, Blu-ray EUR
Язык : Russian
Default : Да
Forced : Нет
Аудио #2
Идентификатор : 3
Формат : DTS
Формат/Информация : Digital Theater Systems
Режим : 16
Параметр Endianness формата : Big
Идентификатор кодека : A_DTS
Продолжительность : 2 ч. 4 м.
Вид битрейта : Постоянный
Битрейт : 1509 Кбит/сек
Каналы : 6 каналов
Расположение каналов : Front: L C R, Side: L R, LFE
Частота : 48,0 КГц
Битовая глубина : 24 бит
Метод сжатия : С потерями
Задержка видео : 11 мс.
Размер потока : 1,31 Гбайт (14%)
Заголовок : DTS 5.1 @ 1536 kbps
Язык : English
Default : Нет
Forced : Нет
Аудио #3
Идентификатор : 4
Формат : AC-3
Формат/Информация : Audio Coding 3
Расширение режима : CM (complete main)
Параметр Endianness формата : Big
Идентификатор кодека : A_AC3
Продолжительность : 2 ч. 4 м.
Вид битрейта : Постоянный
Битрейт : 448 Кбит/сек
Каналы : 6 каналов
Расположение каналов : Front: L C R, Side: L R, LFE
Частота : 48,0 КГц
Метод сжатия : С потерями
Размер потока : 397 Мбайт (4%)
Заголовок : AC3 5.1 @ 448 kbps - Deive
Язык : English
Default : Нет
Forced : Нет
Текст #1
Идентификатор : 5
Формат : UTF-8
Идентификатор кодека : S_TEXT/UTF8
Идентификатор кодека/Информация : UTF-8 Plain Text
Заголовок : iTunes
Язык : Russian
Default : Нет
Forced : Нет
Текст #2
Идентификатор : 6
Формат : UTF-8
Идентификатор кодека : S_TEXT/UTF8
Идентификатор кодека/Информация : UTF-8 Plain Text
Заголовок : iTunes
Язык : Ukrainian
Default : Нет
Forced : Нет
Текст #3
Идентификатор : 7
Формат : UTF-8
Идентификатор кодека : S_TEXT/UTF8
Идентификатор кодека/Информация : UTF-8 Plain Text
Заголовок : iTunes
Язык : English
Default : Нет
Forced : Нет
Меню
00:00:00.000 : en:00:00:00.000
00:06:14.082 : en:00:06:14.082
00:09:54.093 : en:00:09:54.093
00:13:43.031 : en:00:13:43.031
00:19:26.749 : en:00:19:26.749
00:22:54.832 : en:00:22:54.832
00:28:09.313 : en:00:28:09.313
00:32:45.672 : en:00:32:45.672
00:36:53.628 : en:00:36:53.628
00:44:02.807 : en:00:44:02.807
00:48:17.019 : en:00:48:17.019
00:53:25.828 : en:00:53:25.828
00:56:57.914 : en:00:56:57.914
01:01:13.128 : en:01:01:13.128
01:06:48.671 : en:01:06:48.671
01:12:52.493 : en:01:12:52.493
01:16:56.445 : en:01:16:56.445
01:20:53.766 : en:01:20:53.766
01:26:14.211 : en:01:26:14.211
01:30:24.836 : en:01:30:24.836
01:35:51.079 : en:01:35:51.079
01:41:28.708 : en:01:41:28.708
01:47:24.355 : en:01:47:24.355
01:53:58.623 : en:01:53:58.623

Скриншоты


[Профиль] [ЛС]
Показать сообщения:    

Текущее время: Сегодня 18:17

Часовой пояс: GMT



Вы не можете начинать темы
Вы не можете отвечать на сообщения
Вы не можете редактировать свои сообщения
Вы не можете удалять свои сообщения
Вы не можете голосовать в опросах
Вы не можете прикреплять файлы к сообщениям
Вы не можете скачивать файлы