Джой / Joy (2015) WEB-DL 720p | iTunes

 
Автор Сообщение

Russian Mafia ®

Пол:

Стаж: 1 год 8 месяцев

Сообщений: 4252



Награды: 10 (Подробнее)

Mega Seeder 2 (Количество: 1) Mega Seeder 1 (Количество: 1) Mega Seeder 3 (Количество: 1)
Торрент-статистика

Создавать темы 08-Апр-2016 11:12

[Цитировать]

Информация о фильме
Название: Джой
Оригинальное название: Joy
Год выхода: 2015
Жанр: драма, комедия, биография
Режиссер: Дэвид О. Расселл
В ролях: Дженнифер Лоуренс, Роберт Де Ниро, Брэдли Купер, Эдгар Рамирес, Даша Поланко, Вирджиния Мэдсен, Изабелла Росселлини, Изабелла Крамп, Элизабет Рём, Ондреа Гадсби
О фильме:
«Джой» - это волнующая история четырех поколений семьи. В центре сюжета – девушка Джой, превращающаяся в женщину, которая становится основательницей бизнес-династии и ее главой. Предательство и измена, потеря невинности и шрамы любви открывают дорогу в эмоциональную комедию о том, как стать истинным лидером семьи, и о том, как любое предприятие неумолимо сталкивается с миром коммерции. Союзники и противники меняются местами как внутри, так и вне семьи, и только внутренние переживания и неистовое воображение Джой помогают ей пройти через поджидающие ее жизненные бури. Как и все предыдущие фильмы Дэвида О. Расселла «Джой» бросает вызов жанровому кино, чтобы рассказать историю семьи, преданности и любви.

Страна: США
Студия: Annapurna Pictures, Davis Entertainment, Fox 2000 Pictures, TSG Entertainment
Продолжительность: 02:04:19
Перевод: Дублированный | iTunes
Файл
Кодек: MPEG-4
Качество: WEB-DL 720p
Видео: 1280x690, 3902 Kbit/s, 23.976 fps
Звук:
Аудио #1: 48.0 Khz, AC3, 5.1, 384 Kbps | Дублированный, iTunes | RUS
Аудио #2: 48.0 Khz, AAC, 2.0, 151 Kbps | Оригинал | ENG
Субтитры: Английские
Релиз от:
Примечание: Без рекламы.

Media-info

Формат : Matroska
Версия формата : Version 4 / Version 2
Размер файла : 3,85 Гбайт
Продолжительность : 2 ч. 4 м.
Общий поток : 4439 Кбит/сек
Название фильма : Joy.2015.WEB-DL.720p
Дата кодирования : UTC 2016-04-07 21:56:21
Программа кодирования : mkvmerge v8.3.0 ('Over the Horizon') 64bit
Библиотека кодирования : libebml v1.3.1 + libmatroska v1.4.2
Обложка : Yes
Attachments : cover_land.jpg / small_cover.jpg / small_cover_land.jpg / cover.jpg
Видео
Идентификатор : 1
Формат : AVC
Формат/Информация : Advanced Video Codec
Профиль формата : High@L3.1
Параметр CABAC формата : Нет
Параметр ReFrames формата : 2 кадра
Идентификатор кодека : V_MPEG4/ISO/AVC
Продолжительность : 2 ч. 4 м.
Битрейт : 3902 Кбит/сек
Ширина : 1280 пикселей
Высота : 690 пикселей
Соотношение сторон : 1,85:1
Режим частоты кадров : Постоянный
Частота кадров : 23,976 (23976/1000) кадра/сек
Цветовое пространство : YUV
Субдискретизация насыщенности : 4:2:0
Битовая глубина : 8 бит
Тип развёртки : Прогрессивная
Бит/(Пиксели*Кадры) : 0.184
Размер потока : 3,39 Гбайт (88%)
Язык : English
Default : Да
Forced : Нет
Цветовой диапазон : Limited
Основные цвета : BT.709
Характеристики трансфера : BT.709
Коэффициенты матрицы : BT.709
Аудио #1
Идентификатор : 2
Формат : AC-3
Формат/Информация : Audio Coding 3
Расширение режима : CM (complete main)
Параметр Endianness формата : Big
Идентификатор кодека : A_AC3
Продолжительность : 2 ч. 4 м.
Вид битрейта : Постоянный
Битрейт : 384 Кбит/сек
Каналы : 6 каналов
Расположение каналов : Front: L C R, Side: L R, LFE
Частота : 48,0 КГц
Частота кадров : 31,250 кадров/сек (1536 spf)
Метод сжатия : С потерями
Размер потока : 341 Мбайт (9%)
Заголовок : DUB [iTunes]
Язык : Russian
Default : Да
Forced : Нет
Аудио #2
Идентификатор : 3
Формат : AAC
Формат/Информация : Advanced Audio Codec
Профиль формата : LC
Идентификатор кодека : A_AAC
Продолжительность : 2 ч. 4 м.
Битрейт : 151 Кбит/сек
Каналы : 2 канала
Расположение каналов : Front: L R
Частота : 48,0 КГц
Частота кадров : 46,875 кадров/сек (1024 spf)
Метод сжатия : С потерями
Размер потока : 134 Мбайт (3%)
Язык : English
Default : Нет
Forced : Нет
Текст
Идентификатор : 4
Формат : UTF-8
Идентификатор кодека : S_TEXT/UTF8
Идентификатор кодека/Информация : UTF-8 Plain Text
Продолжительность : 1 ч. 55 м.
Битрейт : 85 бит/сек
Count of elements : 2336
Размер потока : 72,6 Кбайт (0%)
Язык : English
Default : Нет
Forced : Нет
Меню
00:00:00.000 : en:1
00:06:14.082 : en:2
00:09:54.093 : en:3
00:13:43.030 : en:4
00:19:26.748 : en:5
00:22:54.831 : en:6
00:28:09.312 : en:7
00:32:45.671 : en:8
00:36:53.627 : en:9
00:44:02.806 : en:10
00:48:17.018 : en:11
00:53:25.826 : en:12
00:56:57.913 : en:13
01:01:13.126 : en:14
01:06:48.669 : en:15
01:12:52.491 : en:16
01:16:56.443 : en:17
01:20:53.763 : en:18
01:26:14.208 : en:19
01:30:24.833 : en:20
01:35:51.075 : en:21
01:41:28.704 : en:22
01:47:24.351 : en:23
01:53:58.620 : en:24

Скриншоты

[Профиль] [ЛС]
Показать сообщения:    

Текущее время: Сегодня 04:48

Часовой пояс: GMT



Вы не можете начинать темы
Вы не можете отвечать на сообщения
Вы не можете редактировать свои сообщения
Вы не можете удалять свои сообщения
Вы не можете голосовать в опросах
Вы не можете прикреплять файлы к сообщениям
Вы не можете скачивать файлы