Джой / Joy (Дрю Мани / Drew Money, Жюли Мари Хассет / Julie Marie Hassett) [2007, США, комедия, драма, DVB] DVO (Kino Polska)

 
Автор Сообщение

TorrentFilm ®

Пол:

Стаж: 2 года

Сообщений: 7741



Награды: Нет

Торрент-статистика

Создавать темы 14-Июн-2015 00:04

[Цитировать]

Джой
Joy- Страна: США
Жанр: комедия, драма
Год выпуска: 2007
Продолжительность: 01:29:41Перевод: Профессиональный (двухголосый закадровый) по заказу Kino Polska на производственно-технической базе Студии "Акцент"
Cубтитры: нет
Режиссер: Дрю Мани / Drew Money, Жюли Мари Хассет / Julie Marie Hassett
В ролях: Жюли Мари Хассет / Julie Marie Hassett (Marie), Дженнифер Грейс Кук / Jennifer Grace Cook (Marie #2), Сара Хассет Джонс / Sarah Hassett Jones (Joy), Эван Боймел / Evan Boymel (Micah), Винс Джоливетт / Vince Jolivette (Davis)
Описание: Фильм основан на реальных событиях и рассказывает о поиске смысла жизни. Может, и в вашей жизни было нечто похожее: кто-то прошел мимо вас в супермаркете, и вам захотелось узнать, что происходит в их жизни.
Мичиган, 1997 год. Смерть отца сводит вместе трех сестер, которые вынуждены отправиться вместе в поездку на автомобиле, в которой осознают: в чем состоит радость жизни, любовь, потери…
Доп. информация: Filmbox Arthouse IPTV
Участник The Indie Gathering Film Festival 2009; Indie Fest USA 2009; Dances With Films Festival 2009; Washougal International Film Festival 2009; La Femme Film Festival 2009.

Качество видео: DVB
Формат видео: MKV
Видео: AVC (H.264), 720x576@1024x576 (16:9), 25 fps, ~725 kbps avg, 0.075 bit/pixel
Аудио: MPEG Audio 2, 2 ch, 48 kHz, ~128.00 kbps avg

MediaInfo

ОбщееУникальный идентификатор : 239994434588962072826313820761089110494 (0xB48D3F2EAF872E13B2BE3E62E383F1DE)Полное имя : F:\My Torrents 3\[apreder]Joy(2009)DVB.mkvФормат : MatroskaВерсия формата : Version 2Размер файла : 558 МбайтПродолжительность : 1 ч. 29 м.Общий поток : 870 Кбит/секДата кодирования : UTC 2015-06-11 19:09:36Программа кодирования : mkvmerge v7.9.0 ('Birds') 64bitБиблиотека кодирования : libebml v1.3.1 + libmatroska v1.4.2
ВидеоИдентификатор : 2Формат : AVCФормат/Информация : Advanced Video CodecПрофиль формата : Main@L3Параметр CABAC формата : ДаПараметр ReFrames формата : 3 кадраПараметр GOP формата : M=4, N=32Идентификатор кодека : V_MPEG4/ISO/AVCПродолжительность : 1 ч. 29 м.Битрейт : 725 Кбит/секШирина : 720 пикселейВысота : 576 пикселейСоотношение сторон : 16:9Режим частоты кадров : ПостоянныйЧастота кадров : 23,456 кадра/секЧастота кадров в оригинале : 25,000 кадров/секСтандарт вещания : ComponentЦветовое пространство : YUVСубдискретизация насыщенности : 4:2:0Битовая глубина : 8 битТип развёртки : ЧересстрочнаяПорядок развёртки : Верхнее поле первоеБит/(Пиксели*Кадры) : 0.075Размер потока : 465 Мбайт (83%)Default : ДаForced : Нетcolour_range : LimitedОсновные цвета : BT.601 PALХарактеристики трансфера : BT.470 System B, BT.470 System GКоэффициенты матрицы : BT.601
АудиоИдентификатор : 1Формат : MPEG AudioВерсия формата : Version 1Профиль формата : Layer 2Идентификатор кодека : A_MPEG/L2Идентификатор кодека/Подсказка : MP2Продолжительность : 1 ч. 29 м.Вид битрейта : ПостоянныйБитрейт : 128 Кбит/секКаналы : 2 каналаЧастота : 48,0 КГцМетод сжатия : С потерямиЗадержка видео : -2 мс.Размер потока : 82,1 Мбайт (15%)Язык : RussianDefault : ДаForced : Нет

Скриншот c названием фильма

Скриншоты


Резервные скриншоты


-[2'317]
[Профиль] [ЛС]

Создавать темы 06-Авг-2015 22:29 (спустя 1 месяц 22 дня)

Топик был перенесен из форума Фильмы до 2014 года в форум Фильмы до 2012 года
sergej644
 
Показать сообщения:    

Текущее время: Сегодня 08:49

Часовой пояс: GMT



Вы не можете начинать темы
Вы не можете отвечать на сообщения
Вы не можете редактировать свои сообщения
Вы не можете удалять свои сообщения
Вы не можете голосовать в опросах
Вы не можете прикреплять файлы к сообщениям
Вы не можете скачивать файлы