Джой / Кенгурёнок Джой / Joey (Иэн Бэрри / Ian Barry) [1997, Австралия, комедия, приключения, семейный, HDTV 1080i] DVO (НТВ+) + Dub (Варус видео) + Original Eng

 
Автор Сообщение

reversefile ®

Пол:

Стаж: 4 года 5 месяцев

Сообщений: 842

Откуда: ReverseFile.org



Награды: Нет

Торрент-статистика

Создавать темы 11-Авг-2014 10:40

[Цитировать]

Джой / Кенгурёнок Джой / Joey
Страна: Австралия
Студия: Pacific Film and Television Commission, Pratt Films, Village Roadshow Pictures
Жанр: комедия, приключения, семейный
Год выпуска: 1997
Продолжительность: 01:32:52
Перевод 1: Профессиональный (двухголосый закадровый) НТВ+
Перевод 2: Профессиональный (дублированный) Варус видео
Cубтитры: нет
Оригинальная аудиодорожка: английский
Режиссер: Иэн Бэрри / Ian Barry
В ролях: Джэми Крофт /Jamie Croft/, Алекс МакКенна /Alex McKenna/, Ребекка Гибни /Rebecca Gibney/, Хэролд Хопкинс /Harold Hopkins/, Тони Бриггс /Tony Briggs/, Рут Крэкнелл /Ruth Cracknell/, Эд Бегли-младший /Ed Begley, Jr./
Описание: 12-летний Билли Макгрегор вместе со своей мамой живет на ранчо в далекой австралийской глуши. Его окружает множество друзей-домашних и диких животных. Больше всех Билли любит маленького кенгуренка по кличке Джой. Когда родителей Джоя похищают браконьеры, Билли решает помочь кенгуренку найти семью. Забравшись в поезд, отправляющийся в большой город, друзья пускаются в фантастическое путешествие, которое подарит им много новых знакомств.
II Сэмпл II IMDB II
Доп. информация:
Дубляж и оригинальная дорога взяты с этой раздачи, спасибо deform
Тип релиза: HDTV 1080i
Контейнер: MKV
Видео: AVC 1920x1080 (16:9) 25.0fps Bit rate 6952Kbps
Аудио 1: MP2 48.0 KHz 2ch. 192kbps rus dvo
Аудио 2: AC3 48.0 KHz 2ch. 192kbps rus dub
Аудио 3: AC3 48.0 KHz 2ch. 192kbps eng

MediaInfo

Общее
Уникальный идентификатор : 221633109179686112107655632653896422937 (0xA6BCFBF226A4D1B8BF6032B811709619)
Полное имя : E:\torrent\Joey.1997.HDTV.10870i.mkv
Формат : Matroska
Версия формата : Version 4 / Version 2
Размер файла : 4,98 Гбайт
Продолжительность : 1 ч. 32 м.
Общий поток : 7681 Кбит/сек
Дата кодирования : UTC 2014-08-04 06:01:02
Программа кодирования : mkvmerge v7.1.0 ('Good Love') 64bit built on Jul 27 2014 13:06:55
Библиотека кодирования : libebml v1.3.0 + libmatroska v1.4.1
DURATION : 01:32:52.736000000
NUMBER_OF_FRAMES : 174148
NUMBER_OF_BYTES : 133745664
_STATISTICS_WRITING_APP : mkvmerge v7.1.0 ('Good Love') 64bit built on Jul 27 2014 13:06:55
_STATISTICS_WRITING_DATE_UTC : 2014-08-04 06:01:02
_STATISTICS_TAGS : BPS DURATION NUMBER_OF_FRAMES NUMBER_OF_BYTES
Видео
Идентификатор : 1
Формат : AVC
Формат/Информация : Advanced Video Codec
Профиль формата : High@L4.0
Параметр CABAC формата : Да
Параметр ReFrames формата : 3 кадра
Идентификатор кодека : V_MPEG4/ISO/AVC
Продолжительность : 1 ч. 32 м.
Битрейт : 6952 Кбит/сек
Ширина : 1920 пикселей
Высота : 1080 пикселей
Соотношение сторон : 16:9
Режим частоты кадров : Постоянный
Частота кадров : 25,000 кадров/сек
Стандарт вещания : Component
Цветовое пространство : YUV
Субдискретизация насыщенности : 4:2:0
Битовая глубина : 8 бит
Тип развёртки : Чересстрочная
Порядок развёртки : Верхнее поле первое
Бит/(Пиксели*Кадры) : 0.134
Размер потока : 4,51 Гбайт (91%)
Заголовок : Joey.1997.HDTV.10870i
Default : Да
Forced : Нет
Основные цвета : BT.709
Характеристики трансфера : BT.709
Коэффициенты матрицы : BT.709
Аудио #1
Идентификатор : 2
Формат : MPEG Audio
Версия формата : Version 1
Профиль формата : Layer 2
Идентификатор кодека : A_MPEG/L2
Идентификатор кодека/Подсказка : MP2
Продолжительность : 1 ч. 32 м.
Вид битрейта : Постоянный
Битрейт : 192 Кбит/сек
Каналы : 2 канала
Частота : 48,0 КГц
Метод сжатия : С потерями
Размер потока : 128 Мбайт (2%)
Заголовок : Rus / DVO / NTV+ / MP2 / 48KHz / 2ch / 192Kbps
Язык : Russian
Default : Да
Forced : Нет
Аудио #2
Идентификатор : 3
Формат : AC-3
Формат/Информация : Audio Coding 3
Расширение режима : CM (complete main)
Параметр Endianness формата : Big
Идентификатор кодека : A_AC3
Продолжительность : 1 ч. 32 м.
Вид битрейта : Постоянный
Битрейт : 192 Кбит/сек
Каналы : 2 канала
Расположение каналов : Front: L R
Частота : 48,0 КГц
Битовая глубина : 16 бит
Метод сжатия : С потерями
Размер потока : 128 Мбайт (2%)
Заголовок : Rus / Dub / AC3 / 48KHz / 2ch / 192Kbps
Язык : Russian
Default : Нет
Forced : Нет
Аудио #3
Идентификатор : 4
Формат : AC-3
Формат/Информация : Audio Coding 3
Расширение режима : CM (complete main)
Параметр Endianness формата : Big
Идентификатор кодека : A_AC3
Продолжительность : 1 ч. 32 м.
Вид битрейта : Постоянный
Битрейт : 192 Кбит/сек
Каналы : 2 канала
Расположение каналов : Front: L R
Частота : 48,0 КГц
Битовая глубина : 16 бит
Метод сжатия : С потерями
Размер потока : 128 Мбайт (2%)
Заголовок : original eng / AC3 / 48KHz / 2ch / 192Kbps
Язык : English
Default : Нет
Forced : Нет

Скриншот с названием фильма

Скриншоты


Сравнение с DVD



[Профиль] [ЛС]
Показать сообщения:    

Текущее время: Сегодня 14:06

Часовой пояс: GMT



Вы не можете начинать темы
Вы не можете отвечать на сообщения
Вы не можете редактировать свои сообщения
Вы не можете удалять свои сообщения
Вы не можете голосовать в опросах
Вы не можете прикреплять файлы к сообщениям
Вы не можете скачивать файлы