Джобс: Империя соблазна / jOBS (2013) BDRip 1080p | US Transfer

 
Автор Сообщение

sergej644 ®

Пол:

Стаж: 4 года 11 месяцев

Сообщений: 6043

Откуда: Soviet Union



Награды: Нет

Торрент-статистика

Создавать темы 21-Янв-2015 22:58

[Цитировать]

Информация о фильме
Название: Джобс: Империя соблазна
Оригинальное название: jOBS
Год выхода: 2013
Жанр: драма, биография
Режиссер: Джошуа Майкл Штерн
В ролях: Эштон Кутчер, Дермот Малруни, Джош Гад, Лукас Хаас, Дж.К. Симмонс, Лесли Энн Уоррен, Рон Элдард, Ана О’Райли, Джон Гец, Джеймс Вудс
О фильме:
Он был молод, красив и чертовски талантлив. Начав с нуля, он смог построить мировую империю соблазна. О нем грезили женщины. Ему завидовали мужчины. Он соблазнил миллионы. Его звали Стив Джобс.

Выпущено: США
Студия: Open Road Films, Entertainment One
Продолжительность: 02:08:14
Перевод: Дублированный (лицензия) + Оригинал
Файл
Кодек: x264
Качество: BDRip (источник: BD-Remux)
Видео: 1920x816 (2,35:1), 23.976 fps, 7381 kbps
Аудио #1: AC-3, 6 ch, 640 kbps (Rus)
Аудио #2: AC-3, 6 ch, 640 kbps (Eng)
Субтитры: Английские

Скриншоты

MI

Общее
Уникальный идентификатор : 232852786937423289837054621099881745398 (0xAF2DD0C49649701CB10C2BEF23454BF6)
Полное имя : F:jOBS.2013.BDRip.1080p.Rus.Eng.mkv
Формат : Matroska
Версия формата : Version 2
Размер файла : 7,75 Гбайт
Продолжительность : 2 ч. 8 м.
Общий поток : 8650 Кбит/сек
Название фильма : Джобс: Империя соблазна / jOBS (2013) [US Transfer]
Дата кодирования : UTC 2013-11-24 13:50:02
Программа кодирования : mkvmerge v5.8.0 ('No Sleep / Pillow') built on Sep 2 2012 15:37:04
Библиотека кодирования : libebml v1.2.3 + libmatroska v1.3.0
Attachment : Yes
Видео
Идентификатор : 1
Формат : AVC
Формат/Информация : Advanced Video Codec
Профиль формата : High@L4.1
Параметр CABAC формата : Да
Параметр ReFrames формата : 5 кадров
Идентификатор кодека : V_MPEG4/ISO/AVC
Продолжительность : 2 ч. 8 м.
Битрейт : 7381 Кбит/сек
Ширина : 1920 пикселей
Высота : 816 пикселей
Соотношение сторон : 2,35:1
Режим частоты кадров : Постоянный
Частота кадров : 23,976 кадра/сек
Цветовое пространство : YUV
Субдискретизация насыщенности : 4:2:0
Битовая глубина : 8 бит
Тип развёртки : Прогрессивная
Бит/(Пиксели*Кадры) : 0.196
Размер потока : 6,45 Гбайт (83%)
Заголовок : Release by N1NT3NDO
Библиотека кодирования : x264 core 140 r2377 1ca7bb9
Настройки программы : cabac=1 / ref=5 / deblock=1:-3:-3 / analyse=0x3:0x133 / me=umh / subme=11 / psy=1 / psy_rd=1.00:0.00 / mixed_ref=1 / me_range=32 / chroma_me=1 / trellis=2 / 8x8dct=1 / cqm=0 / deadzone=21,11 / fast_pskip=0 / chroma_qp_offset=-2 / threads=12 / lookahead_threads=1 / sliced_threads=0 / nr=0 / decimate=0 / interlaced=0 / bluray_compat=0 / constrained_intra=0 / bframes=6 / b_pyramid=2 / b_adapt=2 / b_bias=0 / direct=3 / weightb=1 / open_gop=0 / weightp=2 / keyint=240 / keyint_min=23 / scenecut=40 / intra_refresh=0 / rc=2pass / mbtree=0 / bitrate=7381 / ratetol=1.0 / qcomp=0.60 / qpmin=0 / qpmax=69 / qpstep=4 / cplxblur=20.0 / qblur=0.5 / ip_ratio=1.40 / pb_ratio=1.30 / aq=1:1.00
Язык : English
Default : Да
Forced : Нет
Аудио #1
Идентификатор : 2
Формат : AC-3
Формат/Информация : Audio Coding 3
Расширение режима : CM (complete main)
Параметр Endianness формата : Big
Идентификатор кодека : A_AC3
Продолжительность : 2 ч. 8 м.
Вид битрейта : Постоянный
Битрейт : 640 Кбит/сек
Каналы : 6 каналов
Расположение каналов : Front: L C R, Side: L R, LFE
Частота : 48,0 КГц
Битовая глубина : 16 бит
Метод сжатия : С потерями
Размер потока : 587 Мбайт (7%)
Заголовок : Rus
Язык : Russian
Default : Да
Forced : Нет
Аудио #2
Идентификатор : 3
Формат : AC-3
Формат/Информация : Audio Coding 3
Расширение режима : CM (complete main)
Параметр Endianness формата : Big
Идентификатор кодека : A_AC3
Продолжительность : 2 ч. 8 м.
Вид битрейта : Постоянный
Битрейт : 640 Кбит/сек
Каналы : 6 каналов
Расположение каналов : Front: L C R, Side: L R, LFE
Частота : 48,0 КГц
Битовая глубина : 16 бит
Метод сжатия : С потерями
Размер потока : 587 Мбайт (7%)
Заголовок : Eng
Язык : English
Default : Нет
Forced : Нет
Текст
Идентификатор : 4
Формат : UTF-8
Идентификатор кодека : S_TEXT/UTF8
Идентификатор кодека/Информация : UTF-8 Plain Text
Заголовок : Eng
Язык : English
Default : Нет
Forced : Нет
Меню
00:00:00.000 : en:00:00:00.000
00:04:12.752 : en:00:04:12.752
00:12:03.306 : en:00:12:03.306
00:19:43.432 : en:00:19:43.432
00:26:16.867 : en:00:26:16.867
00:33:06.067 : en:00:33:06.067
00:40:17.040 : en:00:40:17.040
00:48:22.650 : en:00:48:22.650
00:55:24.780 : en:00:55:24.780
00:59:28.148 : en:00:59:28.148
01:05:36.808 : en:01:05:36.808
01:13:55.264 : en:01:13:55.264
01:21:31.428 : en:01:21:31.428
01:28:51.201 : en:01:28:51.201
01:33:15.590 : en:01:33:15.590
01:39:02.395 : en:01:39:02.395
01:43:18.609 : en:01:43:18.609
01:48:09.066 : en:01:48:09.066
01:54:46.171 : en:01:54:46.171
02:00:29.013 : en:02:00:29.013

x264

x264 [info]: frame I:1924 Avg QP:15.55 size:208319
x264 [info]: frame P:44579 Avg QP:17.68 size: 68612
x264 [info]: frame B:137976 Avg QP:19.17 size: 26279
x264 [info]: consecutive B-frames: 3.6% 6.7% 6.5% 23.7% 12.5% 40.7% 6.3%
[Профиль] [ЛС]
Показать сообщения:    

Текущее время: Сегодня 22:24

Часовой пояс: GMT



Вы не можете начинать темы
Вы не можете отвечать на сообщения
Вы не можете редактировать свои сообщения
Вы не можете удалять свои сообщения
Вы не можете голосовать в опросах
Вы не можете прикреплять файлы к сообщениям
Вы не можете скачивать файлы