Джи и Цыган / Dji and Tigan (Дмитрий Волошин / Dmitri Voloshin) [2009, короткометражный анимационный фильм, WEBRip]

 
Автор Сообщение

TorrentFilm ®

Пол:

Стаж: 1 год 11 месяцев

Сообщений: 7741



Награды: Нет

Торрент-статистика

Создавать темы 04-Янв-2016 00:04

[Цитировать]

Джи и Цыган : Dji and Tigan Год выпуска: 2009
Страна: Молдавия
Жанр: короткометражный анимационный фильм
Продолжительность: 00:01:00
Перевод: не требуется
субтитры: отсутствуют-студия: Simpals
Режиссёр: Дмитрий Волошин : Dmitri Voloshin-Описание: Джи – не стандартная смерть. Темный рыцарь предстал в ином облике. Нет, он не белый и пушистый. Просто он жутко невезучий. Все, что ему нужно сделать – забрать душу умирающего человека. Справится он с этим или нет, смотрите сами.
На этот раз Джи повстречал Цыгана.-релиз: -Качество: WEBRip
Формат: AVI
Видео кодек: XviD
Аудио кодек: MP3
Видео: 688x384 , (1.79:1), 25 fps, XviD build 65 ~2184 kbps avg, 0.33 bit/pixel
Аудио: 44.100 kHz, MPEG Layer 3, 2 ch, ~128.00 kbps avg

MediaInfo

Общее
Полное имя : C:\Users\Olya\Desktop\Цыган\Dji and Tigan.2009.WEBRip.avi
Формат : AVI
Формат/Информация : Audio Video Interleave
Размер файла : 16,6 Мбайт
Продолжительность : 1 м. 0 с.
Общий поток : 2324 Кбит/сек
Программа кодирования : VirtualDubModRus 1.5.10.2 (build 2542/release)
Библиотека кодирования : VirtualDubMod build 2542/release
Видео
Идентификатор : 0
Формат : MPEG-4 Visual
Профиль формата : Advanced Simple@L5
Параметр BVOP формата : 2
Параметр QPel формата : Нет
Параметр GMC формата : Без точки перехода
Параметр матрицы формата : Выборочная
Идентификатор кодека : XVID
Идентификатор кодека/Подсказка : XviD
Продолжительность : 1 м. 0 с.
Битрейт : 2185 Кбит/сек
Ширина : 688 пикселей
Высота : 384 пикселя
Соотношение сторон : 16:9
Частота кадров : 25,000 кадров/сек
Цветовое пространство : YUV
Субдискретизация насыщенности : 4:2:0
Битовая глубина : 8 бит
Тип развёртки : Прогрессивная
Метод сжатия : С потерями
Бит/(Пиксели*Кадры) : 0.331
Размер потока : 15,6 Мбайт (94%)
Библиотека кодирования : XviD 65
Аудио
Идентификатор : 1
Формат : MPEG Audio
Версия формата : Version 1
Профиль формата : Layer 3
Режим : Joint stereo
Идентификатор кодека : 55
Идентификатор кодека/Подсказка : MP3
Продолжительность : 59 с.
Вид битрейта : Постоянный
Битрейт : 128 Кбит/сек
Каналы : 2 канала
Частота : 44,1 КГц
Метод сжатия : С потерями
Размер потока : 937 Кбайт (6%)
Выравнивание : Разделение по промежуткам
Продолжительность промежутка : 40 мс. (1,01 видеокадр)
Время предзагрузки промежутка : 500 мс.
Библиотека кодирования : LAME3.99r
Настройки программы : -m j -V 4 -q 3 -lowpass 17 -b 128
[Профиль] [ЛС]
Кто просматривает тему:

Показать сообщения:    

Текущее время: Сегодня 22:35

Часовой пояс: GMT



Вы не можете начинать темы
Вы не можете отвечать на сообщения
Вы не можете редактировать свои сообщения
Вы не можете удалять свои сообщения
Вы не можете голосовать в опросах
Вы не можете прикреплять файлы к сообщениям
Вы не можете скачивать файлы