Джин-помощник (Ж. Даненов, Г. Кистауов) [1982, Казахфильм, рисованная анимация, TeleSynch]

 
Автор Сообщение

TorrentFilm ®

Пол:

Стаж: 2 года

Сообщений: 7741



Награды: Нет

Торрент-статистика

Создавать темы 04-Янв-2016 00:02

[Цитировать]

Джин-помощник
Страна: СССР
Жанр: рисованная анимация
Продолжительность: 00:08:24
Год выпуска: 1982
Режиссёр: Ж. Даненов, Г. Кистауов
Описание: В фильме рассказывается о мальчике, который хотел делать добрые дела с помощью Джина. Однако никакие волшебники не помогут человеку больше, чем он сам. Он и должен творить добрые дела.
Доп. информация: Фильм оцифрован с киноплёнки 35-мм из личной коллекции
Качество: TeleSynch
Формат: MPG
Видео: 720х576 (4:3), 25 fps, MPEG2, 4944 kbps
Аудио: АС3; 48 кHz; 2 ch (моно); 256 kbps

Подробные технические данные

ОбщееПолное имя : Джин-помощник.mpgФормат : MPEG-PSРазмер файла : 297 МбайтПродолжительность : 8 м. 24 с.Режим общего битрейта : ПеременныйОбщий поток : 4944 Кбит/сек
ВидеоИдентификатор : 224 (0xE0)Формат : MPEG VideoВерсия формата : Version 2Профиль формата : Main@MainПараметр BVOP формата : ДаПараметр матрицы формата : По умолчаниюПродолжительность : 8 м. 24 с.Вид битрейта : ПеременныйБитрейт : 4590 Кбит/секШирина : 720 пикселейВысота : 576 пикселейСоотношение сторон : 5:4Частота кадров : 25,000 кадров/секСтандарт вещания : PALЦветовое пространство : YUVСубдискретизация насыщенности : 4:2:0Битовая глубина : 8 битТип развёртки : ПрогрессивнаяМетод сжатия : С потерямиБит/(Пиксели*Кадры) : 0.443Временной код первого кадра : 00:00:00:00Оригинал временного кода : Group of pictures headerРазмер потока : 276 Мбайт (93%)
АудиоИдентификатор : 192 (0xC0)Формат : MPEG AudioВерсия формата : Version 1Профиль формата : Layer 2Продолжительность : 8 м. 24 с.Вид битрейта : ПостоянныйБитрейт : 256 Кбит/секКаналы : 2 каналаЧастота : 48,0 КГцМетод сжатия : С потерямиРазмер потока : 15,4 Мбайт (5%)

Скриншоты

, , , ,
[Профиль] [ЛС]
Кто просматривает тему:

Показать сообщения:    

Текущее время: Сегодня 11:07

Часовой пояс: GMT



Вы не можете начинать темы
Вы не можете отвечать на сообщения
Вы не можете редактировать свои сообщения
Вы не можете удалять свои сообщения
Вы не можете голосовать в опросах
Вы не можете прикреплять файлы к сообщениям
Вы не можете скачивать файлы