Джинсы - талисман 2 / The Sisterhood of the Traveling Pants 2 (Санаа Хамри / Canaa Xamri) [2008, США, комедия, мелодрама, HDRip] MVO + Sub Rus + Original Eng

 
Автор Сообщение

TorrentFilm ®

Пол:

Стаж: 2 года

Сообщений: 7741



Награды: Нет

Торрент-статистика

Создавать темы 07-Фев-2016 00:08

[Цитировать]

Джинсы - талисман 2 / The Sisterhood of the Traveling Pants 2
Страна: США
Жанр: комедия, мелодрама
Год выпуска: 2008
Продолжительность: 01:59:34
Перевод: Профессиональный (многоголосый закадровый)
Cубтитры: русские
Оригинальная аудиодорожка: английский

Режиссер: Санаа Хамри / Canaa Xamri
В ролях: Эмбер Тэмблин, Алексис Бледел, Америка Феррера, Блэйк Лайвли, Рэйчел Николс, Том Уисдом, Рэйчел Тикотин, Леонардо Нэм, Майкл Рэди, Шоре Агдашлу
Описание: Продолжение истории о четырех подругах детства, которых разметала в разные стороны судьба-злодейка и только пара джинс из секонд-хэнда, которая идеально подходит каждой из них и передается из рук в руки, их талисман, не дает им забыть о своей дружбе. Прошло три года. Из 16-ти летних девчушек получились 19-ти летние красотки. Первый год в колледже. И первые летние каникулы. Они любят и ссорятся, открывают в себе страхи и таланты, исследуют запасы своей любви и понимают, что все это возможно, но у них есть еще и бесконечная сила дружбы.
Качество видео: HDRip
Формат видео: AVI
Видео: 704x400 (1.76:1), 23.976 fps, XviD build 73 ~1352 kbps avg, 0.20 bit/pixel
Аудио: 48 kHz, AC3 Dolby Digital, 3/2 (L,C,R,l,r) + LFE ch, ~384 kbps - многоголосый
Аудио: 48 kHz, AC3 Dolby Digital, 3/2 (L,C,R,l,r) + LFE ch, ~448 kbps - оригинал (отдельно)

MediaInfo

Общее
Полное имя : H:\The.Sisterhood.of.the.Traveling.Pants_2.2008.hdrip_[1.46]_[teko]\The.Sisterhood.of.the.Traveling.Pants_2.2008.hdrip_[1.46].avi
Формат : AVI
Формат/Информация : Audio Video Interleave
Размер файла : 1,46 Гбайт
Продолжительность : 1 ч. 59 м.
Общий поток : 1746 Кбит/сек
Программа кодирования : VirtualDubMod 1.5.10.3 | www.virtualdub-fr.org || (build 2550/release)
Библиотека кодирования : VirtualDubMod build 2550/release
Видео
Идентификатор : 0
Формат : MPEG-4 Visual
Профиль формата : Advanced Simple@L5
Параметр BVOP формата : 2
Параметр QPel формата : Нет
Параметр GMC формата : Без точки перехода
Параметр матрицы формата : Выборочная
Идентификатор кодека : XVID
Идентификатор кодека/Подсказка : XviD
Продолжительность : 1 ч. 59 м.
Битрейт : 1353 Кбит/сек
Ширина : 704 пикселя
Высота : 400 пикселей
Соотношение сторон : 16:9
Частота кадров : 23,976 кадра/сек
Цветовое пространство : YUV
Субдискретизация насыщенности : 4:2:0
Битовая глубина : 8 бит
Тип развёртки : Прогрессивная
Метод сжатия : С потерями
Бит/(Пиксели*Кадры) : 0.200
Размер потока : 1,13 Гбайт (77%)
Библиотека кодирования : XviD 73
Аудио
Идентификатор : 1
Формат : AC-3
Формат/Информация : Audio Coding 3
Расширение режима : CM (complete main)
Параметр Endianness формата : Big
Идентификатор кодека : 2000
Продолжительность : 1 ч. 59 м.
Вид битрейта : Постоянный
Битрейт : 384 Кбит/сек
Каналы : 6 каналов
Расположение каналов : Front: L C R, Side: L R, LFE
Частота : 48,0 КГц
Битовая глубина : 16 бит
Метод сжатия : С потерями
Размер потока : 328 Мбайт (22%)
Выравнивание : Разделение по промежуткам
Продолжительность промежутка : 42 мс. (1,00 видеокадр)
Время предзагрузки промежутка : 500 мс.
Релиз группы:
--
[Профиль] [ЛС]

Создавать темы 12-Июн-2016 08:50 (спустя 4 месяца 5 дней)

Топик был перенесен из форума Фильмы 2011 года в форум Фильмы 2006-2008 года
Russian Mafia
 
Кто просматривает тему:

Показать сообщения:    

Текущее время: Сегодня 01:28

Часовой пояс: GMT



Вы не можете начинать темы
Вы не можете отвечать на сообщения
Вы не можете редактировать свои сообщения
Вы не можете удалять свои сообщения
Вы не можете голосовать в опросах
Вы не можете прикреплять файлы к сообщениям
Вы не можете скачивать файлы