Джинн / Jinn (2014) HDRip-AVC от ExKinoRay | L1

 
Автор Сообщение

Белочка ®

Пол:

Стаж: 5 лет 1 месяц

Сообщений: 2089



Награды: 1 (Подробнее)

Girls (Количество: 1)
Торрент-статистика

Создавать темы 07-Ноя-2014 21:52

[Цитировать]

Информация о фильме
Название: Джинн
Оригинальное название: Jinn
Год выпуска: 2014
Жанр: Ужасы, триллер
Выпущено: США, Exxodus Pictures
Режиссер: Аджмал Захир Ахмад
В ролях: Серинда Свон, Рэй Парк, Уильям Этертон, Сибулла Дин, Фаран Таир, Амин Наземзадех, Миа Гович, Эмбер Вилан, Уолтер Фелан, Дэнни Муни
О фильме: С давних времён люди постоянно сталкивались с ангелами, и эти встречи нашли отражение в культуре и религии всех народов мира. Веками ангельская раса доминировала в наших легендах, так что информация о других сверхъестественных существах почти стерлась из памяти человечества. А ведь издавна бок о бок с людьми жили невидимые джинны – удивительные создания, родившиеся из огня, – хотя наши пути практически не пересекались. Поэтому для любого современного человека встреча с джиннами становится настоящим шоком...

Страна: США, Exxodus Pictures
Продолжительность: 01:37:11
Озвучивание: Любительское (одноголосое) [Васька Куролесов]
Субтитры: Английские
Файл
Качество: HDRip (AVC)
Видео: MPEG-4 AVC, 1415 Кбит/с, 1024x428
Аудио: Русский (AC3, 2 ch, 256 Кбит/с), английский (AC3, 6 ch, 448 кбит/c)
Продолжительность: 01:37:11

Медиа-инфо

General
Unique ID : 174533552968596035173360741235638702581 (0x834DF089614391F4BE637F07B88891F5)
Complete name : C:Jinn.2014.L1.HDRip.AVC.ExKinoRay.mkv
Format : Matroska
Format version : Version 2
File size : 1.44 GiB
Duration : 1h 37mn
Overall bit rate : 2 121 Kbps
Movie name : Jinn 2014 from ExKinoRay
Encoded date : UTC 2014-11-07 02:54:49
Writing application : mkvmerge v4.9.1 ('Ich will') built on Jul 11 2011 23:53:15
Writing library : libebml v1.2.1 + libmatroska v1.1.1
Video
ID : 1
Format : AVC
Format/Info : Advanced Video Codec
Format profile : High@L4.1
Format settings, CABAC : Yes
Format settings, ReFrames : 8 frames
Codec ID : V_MPEG4/ISO/AVC
Duration : 1h 37mn
Bit rate : 1 415 Kbps
Width : 1 024 pixels
Height : 428 pixels
Display aspect ratio : 2.40:1
Frame rate mode : Constant
Frame rate : 24.000 fps
Color space : YUV
Chroma subsampling : 4:2:0
Bit depth : 8 bits
Scan type : Progressive
Bits/(Pixel*Frame) : 0.135
Stream size : 956 MiB (65%)
Title : Enigma-Vladislav71
Writing library : x264 core 133 r2334 a3ac64b
Encoding settings : cabac=1 / ref=8 / deblock=1:-2:-2 / analyse=0x3:0x113 / me=umh / subme=11 / psy=1 / psy_rd=1.00:0.10 / mixed_ref=1 / me_range=32 / chroma_me=1 / trellis=2 / 8x8dct=1 / cqm=0 / deadzone=21,11 / fast_pskip=0 / chroma_qp_offset=-3 / threads=12 / lookahead_threads=2 / sliced_threads=0 / nr=0 / decimate=0 / interlaced=0 / bluray_compat=0 / constrained_intra=0 / bframes=9 / b_pyramid=2 / b_adapt=2 / b_bias=0 / direct=3 / weightb=1 / open_gop=0 / weightp=2 / keyint=240 / keyint_min=24 / scenecut=40 / intra_refresh=0 / rc=2pass / mbtree=0 / bitrate=1415 / ratetol=1.0 / qcomp=0.60 / qpmin=0 / qpmax=69 / qpstep=4 / cplxblur=20.0 / qblur=0.5 / ip_ratio=1.40 / pb_ratio=1.30 / aq=1:1.00
Default : Yes
Forced : No
Color primaries : BT.709
Transfer characteristics : BT.709
Matrix coefficients : BT.709
Audio #1
ID : 2
Format : AC-3
Format/Info : Audio Coding 3
Mode extension : CM (complete main)
Format settings, Endianness : Big
Codec ID : A_AC3
Duration : 1h 37mn
Bit rate mode : Constant
Bit rate : 256 Kbps
Channel(s) : 2 channels
Channel positions : Front: L R
Sampling rate : 48.0 KHz
Bit depth : 16 bits
Compression mode : Lossy
Stream size : 178 MiB (12%)
Title : VO (Васька Куролесов)
Language : Russian
Default : Yes
Forced : No
Audio #2
ID : 3
Format : AC-3
Format/Info : Audio Coding 3
Mode extension : CM (complete main)
Format settings, Endianness : Big
Codec ID : A_AC3
Duration : 1h 37mn
Bit rate mode : Constant
Bit rate : 448 Kbps
Channel(s) : 6 channels
Channel positions : Front: L C R, Side: L R, LFE
Sampling rate : 48.0 KHz
Bit depth : 16 bits
Compression mode : Lossy
Stream size : 311 MiB (21%)
Language : English
Default : No
Forced : No
Text
ID : 4
Format : UTF-8
Codec ID : S_TEXT/UTF8
Codec ID/Info : UTF-8 Plain Text
Language : English
Default : No
Forced : No

Скриншоты



[Профиль] [ЛС]
Показать сообщения:    

Текущее время: Сегодня 22:22

Часовой пояс: GMT



Вы не можете начинать темы
Вы не можете отвечать на сообщения
Вы не можете редактировать свои сообщения
Вы не можете удалять свои сообщения
Вы не можете голосовать в опросах
Вы не можете прикреплять файлы к сообщениям
Вы не можете скачивать файлы