Джентльмены, удачи! (Александр Баранов, Дмитрий Киселёв) [2012, Россия, комедия, криминал, DVD9] R5 Original Rus

 
Автор Сообщение

TorrentFilm ®

Пол:

Стаж: 2 года

Сообщений: 7741



Награды: Нет

Торрент-статистика

Создавать темы 02-Янв-2016 00:02

[Цитировать]

-Джентльмены, удачи!-«Шли на дело - попали на ёлку» -Страна: Россия
Студия: Базелевс Продакшн
Жанр: комедия, криминал
Год выпуска: 2012
Мировая премьера: 27 декабря 2012
Российская премьера: 27 декабря 2012, «Bazelevs Distribution»
Дата выхода DVD: 5 февраля 2013, «Флагман-Трейд»
Дата выхода Blu-Ray: 5 февраля 2013, «Флагман-Трейд»
Продолжительность: 01:35:55
Перевод: Оригинал [Лицензия]
Cубтитры: нет
Оригинальная аудиодорожка: русский-Режиссер: Александр Баранов, Дмитрий Киселёв-В ролях: Сергей Безруков, Гоша Куценко, Антон Богданов, Марина Петренко, Дато Бахтадзе, Кирилл Жандаров, Валентин Смирнитский, Толепберген Байсакалов-Описание: Молодой аниматор детского центра Леша Трешкин — инфантильный и жизнерадостный «хипстер» — оказывается двойником опаснейшего вора и убийцы Смайлика (так его прозвали за привычку улыбаться перед тем, как убить). Смайлик похищает из музея Санкт-Петербурга национальный символ Казахстана — Доспех Золотого Воина. Молодая красивая лейтенант полиции Ирина Славина ловит Трешкина, и «современными» полицейскими методами заставляет его помочь следствию. Выбора нет, иначе Трешкин сядет как настоящий преступник.
Так Трешкин оказывается в Египте, где сидят двое подельников Смайлика — молодой воришка-оптимист Муха и матёрый мрачный Шатун. Начинается безумная череда приключений, — побег под прикрытием песчаной бури, гонки на грузовиках, переодевание в паранджи. Пытаясь выкрутиться из создавшейся ситуации, Трешкин неожиданно понимает, что из безответственного слабака превращается в человека, от которого зависит свобода и жизнь других. Но когда реальный Смайлик выходит на сцену, Трешкину придется решиться на настоящий подвиг, чтобы в этот новый год спасти и себя, и Славину, и своих новых друзей. А главное — найти любовь.
-Бонусы: нет- -Релиз группы: -Качество: DVD9 R5
Формат: DVD-Video
Видео кодек: MPEG2
Аудио кодек: AC3
Видео: PAL 16:9 (720x576(0.900)) MPEG Video, 25,000 кадр/сек, 9334 Кбит/сек
Аудио: Russian (Dolby AC3, 6 ch) 448 Кбит/сек, 48,0 КГц--

DVDInfo

Title: Dzhentlmeny.udachi.2012.DVD9
Size: 6.92 Gb ( 7 258 528,00 KBytes ) - DVD-9
Enabled regions: 1, 2, 3, 4, 5, 6, 7, 8
VTS_01 :
Play Length: 01:35:55
Video: PAL 16:9 (720x576) VBR, Auto Letterboxed
Audio:
Russian (Dolby AC3, 6 ch)
* Menus Information *
VIDEO_TS Menu
Video:
PAL 16:9 (720x576) VBR
Auto Letterboxed
Audio:
Not specified (Dolby AC3, 2 ch)
Russian Language Unit :
Title Menu
VTS_01 Menu
Video:
PAL 16:9 (720x576) VBR
Auto Letterboxed
Audio:
Not specified (Dolby AC3, 2 ch)
Russian Language Unit :
Root Menu

MediaInfo

Общее
Полное имя : J:\Новинки 2012\Dzhentlmeny.udachi.2012.DVD9\VIDEO_TS\VTS_01_1.VOB
Формат : MPEG-PS
Размер файла : 1024 Мбайт
Продолжительность : 14 м.
Общий поток : 9980 Кбит/сек
Видео
Идентификатор : 224 (0xE0)
Формат : MPEG Video
Версия формата : Version 2
Профиль формата : Main@Main
Параметр BVOP формата : Да
Параметр матрицы формата : Выборочная
Параметр GOP формата : Variable
Продолжительность : 14 м.
Битрейт : 9334 Кбит/сек
Максимальный битрейт : 9000 Кбит/сек
Ширина : 720 пикселей
Высота : 576 пикселей
Соотношение сторон : 16:9
Частота кадров : 25,000 кадров/сек
Стандарт вещания : PAL
Цветовое пространство : YUV
Субдискретизация насыщенности : 4:2:0
Битовая глубина : 8 бит
Тип развёртки : Чересстрочная
Порядок развёртки : Верхнее поле первое
Метод сжатия : С потерями
Бит/(Пиксели*Кадры) : 0.900
Размер потока : 958 Мбайт (94%)
Аудио
Идентификатор : 189 (0xBD)-128 (0x80)
Формат : AC-3
Формат/Информация : Audio Coding 3
Расширение режима : CM (complete main)
Параметр Endianness формата : Big
Режим смешивания : DVD-Video
Продолжительность : 14 м.
Вид битрейта : Постоянный
Битрейт : 448 Кбит/сек
Каналы : 6 каналов
Расположение каналов : Front: L C R, Side: L R, LFE
Частота : 48,0 КГц
Битовая глубина : 16 бит
Метод сжатия : С потерями
Размер потока : 46,0 Мбайт (4%)

Скриншоты меню

Скриншоты фильма


-
-Раздача от группы:
[Профиль] [ЛС]
Кто просматривает тему:

Форум Тема Автор Размер
Мировая классика Бульвер-Литтон Эдуард - Пелэм, или Приключения джентльмена [Заборовский Юрий, 2014] Magnat 1011 MB
Зарубежные Дpaкyлa в 3Д / Drасulа 3D (Дарио Ардженто / Dario Argento) [2012, Ужасы, Триллер, Мелодрама, BDrip, 1080p] OverUnder / Вертикальная стереопара TorrentFilm 16.03 GB
Фильмы 2014 года Джентльмен грабитель / Electric Slide (Тристан Паттерсон) [2014, боевик, триллер, драма, криминал, биография] WEB-DLRip | Чистый звук BOSS 1.37 GB
Классика зарубежного кино Джентльменское соглашение / Gentleman's Agreement (1947) DVDRip Swager 1.37 GB
Фильмы (HD Rips | 720p, 1080p) Джентльмены удачи (1971) BDRip 1080p sergej644 4.37 GB
Фильмы (HD Rips | 720p, 1080p) Джентльмены удачи (Александр Серый) [1971, СССР, драма, комедия, криминал, детектив, Blu-ray disc] Original Rus TorrentFilm 18.65 GB
Фильмы (HD DVD, Blu-ray и BDRemux) Джентльмены удачи (Александр Серый) [1971, СССР, комедия, драма, BDRip 1080p] painkiller 6.44 GB
Фильмы (HD Rips | 720p, 1080p) Джентльмены удачи (Александр Серый) [1971, СССР, комедия, драма, BDRip 720p] reversefile 4.37 GB
Показать сообщения:    

Текущее время: Сегодня 10:34

Часовой пояс: GMT



Вы не можете начинать темы
Вы не можете отвечать на сообщения
Вы не можете редактировать свои сообщения
Вы не можете удалять свои сообщения
Вы не можете голосовать в опросах
Вы не можете прикреплять файлы к сообщениям
Вы не можете скачивать файлы