Джентльмены удачи (Александр Серый) [1971, СССР, комедия, драма, BDRip 1080p]

 
Автор Сообщение

painkiller ®

Стаж: 2 года 3 месяца

Сообщений: 582



Награды: Нет

Торрент-статистика

Создавать темы 14-Авг-2014 13:09

[Цитировать]

Джентльмены удачи
Страна: СССР
Студия: Мосфильм
Жанр: комедия, драма
Год выпуска: 1971
Продолжительность: 01:26:43-Перевод: Не требуется
Cубтитры: нет
Оригинальная аудиодорожка: русский-Режиссер: Александр Серый-В ролях: Евгений Леонов, Георгий Вицин, Раднэр Муратов, Савелий Крамаров, Наталья Фатеева, Эраст Гарин, Николай Олялин, Анатолий Папанов, Павел Шпрингфельд, Любовь Соколова-Описание: Заведующему детсадом Трошкину фатально не повезло: он оказался как две капли воды похож на бандита по кличке «Доцент», похитившего уникальный шлем Александра Македонского.
Милиция внедряет добряка Трошкина в воровскую среду - и ему ничего не остается, кроме как старательно изображать своего двойника-злодея, путая всех окружающих. Со временем он настолько блестяще входит в роль, что сам начинает порой приходить в ужас. Между тем, жизни его угрожает смертельная опасность...
-Доп. информация:
Автор рипа - sergey_n from . Спасибо ему.-Тип релиза: BDRip 1080p
Контейнер: MKV
Видеокодек: х264
Аудиокодек: DTS
Видео: х264, 1424х1080 (4:3), 8904 kbps, 23.976 fps
Аудио: DTS, 5.1, 48 kHz, 24-bit, 1536 kbps
Главы: 16 шт.-

MediaInfo

General
Unique ID : 187313235699618622429401836059559117870 (0x8CEB378AC8342EF880AEBF7DB14AC42E)
Complete name : C:\Users\Uzer\Desktop\Djentlmeny.udachi.1971.1080p.BluRay.HDCLUB.mkv
Format : Matroska
Format version : Version 2
File size : 6.44 GiB
Duration : 1h 26mn
Overall bit rate : 10.6 Mbps
Movie name : Джентльмены удачи (1971) - Release for HDCLUB
Encoded date : UTC 2012-03-16 13:55:19
Writing application : mkvmerge v5.4.0 ('Piper') built on Mar 10 2012 13:34:39
Writing library : libebml v1.2.3 + libmatroska v1.3.0
Video
ID : 1
Format : AVC
Format/Info : Advanced Video Codec
Format profile : High@L4.1
Format settings, CABAC : Yes
Format settings, ReFrames : 4 frames
Codec ID : V_MPEG4/ISO/AVC
Duration : 1h 26mn
Bit rate : 8 904 Kbps
Width : 1 424 pixels
Height : 1 080 pixels
Display aspect ratio : 4:3
Frame rate : 23.976 fps
Color space : YUV
Chroma subsampling : 4:2:0
Bit depth : 8 bits
Scan type : Progressive
Bits/(Pixel*Frame) : 0.241
Stream size : 5.39 GiB (84%)
Title : Release for HDCLUB
Writing library : x264 core 122 r2184 5c85e0a
Encoding settings : cabac=1 / ref=4 / deblock=1:-3:-3 / analyse=0x3:0x113 / me=umh / subme=10 / psy=1 / psy_rd=0.95:0.00 / mixed_ref=1 / me_range=32 / chroma_me=1 / trellis=2 / 8x8dct=1 / cqm=0 / deadzone=21,11 / fast_pskip=0 / chroma_qp_offset=-2 / threads=18 / sliced_threads=0 / nr=0 / decimate=0 / interlaced=0 / bluray_compat=0 / constrained_intra=0 / bframes=8 / b_pyramid=2 / b_adapt=2 / b_bias=0 / direct=3 / weightb=1 / open_gop=0 / weightp=2 / keyint=240 / keyint_min=22 / scenecut=40 / intra_refresh=0 / rc_lookahead=60 / rc=crf / mbtree=0 / crf=18.0 / qcomp=0.60 / qpmin=0 / qpmax=69 / qpstep=4 / vbv_maxrate=50000 / vbv_bufsize=62500 / crf_max=0.0 / nal_hrd=none / ip_ratio=1.40 / pb_ratio=1.30 / aq=2:0.80
Default : Yes
Forced : No
Matrix coefficients : BT.709-5, BT.1361, IEC 61966-2-4 709, SMPTE RP177
Audio
ID : 2
Format : DTS
Format/Info : Digital Theater Systems
Codec ID : A_DTS
Duration : 1h 26mn
Bit rate mode : Constant
Bit rate : 1 510 Kbps
Channel(s) : 6 channels
Channel positions : Front: L C R, Side: L R, LFE
Sampling rate : 48.0 KHz
Bit depth : 24 bits
Compression mode : Lossy
Stream size : 937 MiB (14%)
Title : DTS 5.1 @ 1536 kbps
Language : Russian
Default : Yes
Forced : No
Menu
00:00:00.000 : en:00:00:00.000
00:07:36.956 : en:00:07:36.956
00:14:13.227 : en:00:14:13.227
00:17:12.573 : en:00:17:12.573
00:24:43.065 : en:00:24:43.065
00:29:42.489 : en:00:29:42.489
00:33:08.278 : en:00:33:08.278
00:39:24.654 : en:00:39:24.654
00:42:40.183 : en:00:42:40.183
00:48:23.901 : en:00:48:23.901
00:58:45.397 : en:00:58:45.397
01:03:47.699 : en:01:03:47.699
01:04:44.756 : en:01:04:44.756
01:14:36.931 : en:01:14:36.931
01:20:04.508 : en:01:20:04.508
01:24:35.404 : en:01:24:35.404

Скриншоты

[Профиль] [ЛС]
Кто просматривает тему:

Форум Тема Автор Размер
Мировая классика Бульвер-Литтон Эдуард - Пелэм, или Приключения джентльмена [Заборовский Юрий, 2014] Magnat 1011 MB
Зарубежные Дpaкyлa в 3Д / Drасulа 3D (Дарио Ардженто / Dario Argento) [2012, Ужасы, Триллер, Мелодрама, BDrip, 1080p] OverUnder / Вертикальная стереопара TorrentFilm 16.03 GB
Фильмы 2014 года Джентльмен грабитель / Electric Slide (Тристан Паттерсон) [2014, боевик, триллер, драма, криминал, биография] WEB-DLRip | Чистый звук BOSS 1.37 GB
Классика зарубежного кино Джентльменское соглашение / Gentleman's Agreement (1947) DVDRip Swager 1.37 GB
Фильмы (HD Rips | 720p, 1080p) Джентльмены удачи (1971) BDRip 1080p sergej644 4.37 GB
Фильмы (HD Rips | 720p, 1080p) Джентльмены удачи (Александр Серый) [1971, СССР, драма, комедия, криминал, детектив, Blu-ray disc] Original Rus TorrentFilm 18.65 GB
Фильмы (HD Rips | 720p, 1080p) Джентльмены удачи (Александр Серый) [1971, СССР, комедия, драма, BDRip 720p] reversefile 4.37 GB
Кино СССР Джентльмены удачи (Александр Серый)[1971, Драма, Комедия, Криминал, BDRip-AVC] sergej644 2.05 GB
Показать сообщения:    

Текущее время: Сегодня 00:15

Часовой пояс: GMT



Вы не можете начинать темы
Вы не можете отвечать на сообщения
Вы не можете редактировать свои сообщения
Вы не можете удалять свои сообщения
Вы не можете голосовать в опросах
Вы не можете прикреплять файлы к сообщениям
Вы не можете скачивать файлы