Джентльмены удачи (Александр Серый) [1971, СССР, комедия, драма, BDRip 720p]

 
Автор Сообщение

reversefile ®

Пол:

Стаж: 4 года 5 месяцев

Сообщений: 842

Откуда: ReverseFile.org



Награды: Нет

Торрент-статистика

Создавать темы 13-Авг-2014 18:32

[Цитировать]

Джентльмены удачи
Страна: СССР
Студия: Мосфильм
Жанр: комедия, драма
Год выпуска: 1971
Продолжительность: 01:26:43-Перевод: Не требуется
Cубтитры: нет
Оригинальная аудиодорожка: русский-Режиссер: Александр Серый-В ролях: Евгений Леонов, Георгий Вицин, Раднэр Муратов, Савелий Крамаров, Наталья Фатеева, Эраст Гарин, Николай Олялин, Анатолий Папанов, Павел Шпрингфельд, Любовь Соколова-Описание: Заведующему детсадом Трошкину фатально не повезло: он оказался как две капли воды похож на бандита по кличке «Доцент», похитившего уникальный шлем Александра Македонского.
Милиция внедряет добряка Трошкина в воровскую среду - и ему ничего не остается, кроме как старательно изображать своего двойника-злодея, путая всех окружающих. Со временем он настолько блестяще входит в роль, что сам начинает порой приходить в ужас. Между тем, жизни его угрожает смертельная опасность...
-Доп. информация: Раздача от
Автор рипа - Skazhutin. Спасибо ему.-Тип релиза: BDRip 720p
Контейнер: MKV
Видеокодек: х264
Аудиокодек: DTS
Видео: х264, 950х720 (4:3), 5700 kbps, 23.976 fps
Аудио: DTS, 5.1, 48 kHz, 24-bit, 1536 kbps
Главы: 16 шт.

MediaInfo

General
Unique ID : 245062722371929720012621986491478913891 (0xB85D5D101995628D86FCD2571B613363)
Complete name : F:\Djentl'meny.udachi.1971.720p.BluRay.HDCLUB-Skazhutin.mkv
Format : Matroska
Format version : Version 2
File size : 4.37 GiB
Duration : 1h 26mn
Overall bit rate : 7 213 Kbps
Movie name : Джентльмены удачи (1971) - Release for HDCLUB by Skazhutin
Encoded date : UTC 2012-03-16 04:31:50
Writing application : mkvmerge v5.4.0 ('Piper') built on Mar 10 2012 13:34:39
Writing library : libebml v1.2.3 + libmatroska v1.3.0
Attachment : Yes / Yes
Video
ID : 1
Format : AVC
Format/Info : Advanced Video Codec
Format profile : High@L4.1
Format settings, CABAC : Yes
Format settings, ReFrames : 11 frames
Codec ID : V_MPEG4/ISO/AVC
Duration : 1h 26mn
Bit rate : 5 700 Kbps
Width : 950 pixels
Height : 720 pixels
Display aspect ratio : 4:3
Frame rate : 23.976 fps
Color space : YUV
Chroma subsampling : 4:2:0
Bit depth : 8 bits
Scan type : Progressive
Bits/(Pixel*Frame) : 0.348
Stream size : 3.37 GiB (77%)
Title : Release for HDCLUB
Writing library : x264 core 122 r2184kMod 5c85e0a
Encoding settings : cabac=1 / ref=11 / deblock=1:-3:-3 / analyse=0x3:0x113 / me=umh / subme=11 / psy=1 / fade_compensate=0.00 / psy_rd=0.95:0.00 / mixed_ref=1 / me_range=48 / chroma_me=1 / trellis=2 / 8x8dct=1 / cqm=0 / deadzone=21,11 / fast_pskip=0 / chroma_qp_offset=-2 / threads=12 / sliced_threads=0 / nr=0 / decimate=0 / interlaced=0 / bluray_compat=0 / constrained_intra=0 / bframes=7 / b_pyramid=2 / b_adapt=2 / b_bias=0 / direct=3 / weightb=1 / open_gop=0 / weightp=2 / keyint=250 / keyint_min=23 / scenecut=40 / intra_refresh=0 / rc_lookahead=60 / rc=2pass / mbtree=1 / bitrate=5700 / ratetol=1.0 / qcomp=0.70 / qpmin=0 / qpmax=69 / qpstep=4 / cplxblur=20.0 / qblur=0.5 / vbv_maxrate=50000 / vbv_bufsize=62500 / nal_hrd=none / ip_ratio=1.40 / aq=3:0.80
Language : Russian
Default : Yes
Forced : No
Matrix coefficients : BT.709-5, BT.1361, IEC 61966-2-4 709, SMPTE RP177
Audio
ID : 2
Format : DTS
Format/Info : Digital Theater Systems
Codec ID : A_DTS
Duration : 1h 26mn
Bit rate mode : Constant
Bit rate : 1 510 Kbps
Channel(s) : 6 channels
Channel positions : Front: L C R, Side: L R, LFE
Sampling rate : 48.0 KHz
Bit depth : 24 bits
Compression mode : Lossy
Stream size : 937 MiB (21%)
Title : DTS 5.1 @ 1536 kbps
Language : Russian
Default : Yes
Forced : No
Menu
00:00:00.000 : en:Chapter 1
00:07:36.956 : en:Chapter 2
00:14:13.227 : en:Chapter 3
00:17:12.573 : en:Chapter 4
00:24:43.064 : en:Chapter 5
00:29:42.489 : en:Chapter 6
00:33:08.277 : en:Chapter 7
00:39:24.653 : en:Chapter 8
00:42:40.182 : en:Chapter 9
00:48:23.901 : en:Chapter 10
00:58:45.396 : en:Chapter 11
01:03:47.698 : en:Chapter 12
01:04:44.755 : en:Chapter 13
01:14:36.930 : en:Chapter 14
01:20:04.508 : en:Chapter 15
01:24:35.403 : en:Chapter 16

Скриншоты

[Профиль] [ЛС]
Кто просматривает тему:

Форум Тема Автор Размер
Мировая классика Бульвер-Литтон Эдуард - Пелэм, или Приключения джентльмена [Заборовский Юрий, 2014] Magnat 1011 MB
Зарубежные Дpaкyлa в 3Д / Drасulа 3D (Дарио Ардженто / Dario Argento) [2012, Ужасы, Триллер, Мелодрама, BDrip, 1080p] OverUnder / Вертикальная стереопара TorrentFilm 16.03 GB
Фильмы 2014 года Джентльмен грабитель / Electric Slide (Тристан Паттерсон) [2014, боевик, триллер, драма, криминал, биография] WEB-DLRip | Чистый звук BOSS 1.37 GB
Классика зарубежного кино Джентльменское соглашение / Gentleman's Agreement (1947) DVDRip Swager 1.37 GB
Фильмы (HD Rips | 720p, 1080p) Джентльмены удачи (1971) BDRip 1080p sergej644 4.37 GB
Фильмы (HD Rips | 720p, 1080p) Джентльмены удачи (Александр Серый) [1971, СССР, драма, комедия, криминал, детектив, Blu-ray disc] Original Rus TorrentFilm 18.65 GB
Фильмы (HD DVD, Blu-ray и BDRemux) Джентльмены удачи (Александр Серый) [1971, СССР, комедия, драма, BDRip 1080p] painkiller 6.44 GB
Кино СССР Джентльмены удачи (Александр Серый)[1971, Драма, Комедия, Криминал, BDRip-AVC] sergej644 2.05 GB
Показать сообщения:    

Текущее время: Сегодня 22:10

Часовой пояс: GMT



Вы не можете начинать темы
Вы не можете отвечать на сообщения
Вы не можете редактировать свои сообщения
Вы не можете удалять свои сообщения
Вы не можете голосовать в опросах
Вы не можете прикреплять файлы к сообщениям
Вы не можете скачивать файлы