Джем и голограммы / Jem and the Holograms (2015) BDRip 1080p | D

 
Автор Сообщение

BOSS ®

Пол:

Стаж: 3 года 9 месяцев

Сообщений: 11123

Откуда: ODESSA



Награды: 22 (Подробнее)

Top Releaser 4 (Количество: 1) Top Releaser 5 (Количество: 1) Top Keeper 1 (Количество: 1)
Торрент-статистика

Создавать темы 16-Май-2018 16:28

[Цитировать]

Информация о фильме
Название: Джем и голограммы
Оригинальное название: Jem and the Holograms
Год выхода: 2015
Жанр: Фэнтези, драма, мелодрама, приключения, музыка
Режиссер: Джон М. Чу
В ролях: Обри Пиплз, Стефани Скотт, Аврора Периньо, Хейли Кийоко, Молли Рингуолд, Изабелла Кай Райс, Барнеби Карпентер, Джейсон Кеннеди, Нэйтан Мур, Джульетт Льюис
О фильме:
Она могла бы остаться обычной девчонкой из небольшого городка. Но один клип в интернете сделал ее звездой. Джем ждут знаменитые сцены, миллионный контракт и самый крутой парень в Голливуде. Дело за малым, разгадать послание отца. Каждую ночь она отправляется на поиски таинственных голограмм.

Страна: США
Студия: Universal Pictures, Hasbro Studios, Scooter Braun Films
Продолжительность: 01:58:33
Перевод: Дублированный
Файл
Кодек: x.264
Качество: BDRip 1080p
Видео: MPEG-4 AVC, 1920x800, ~9051 Kбит/с, 23.976 кадр/с
Звук:
Аудио #1: Русский ( АС3, 6ch, 448 Кбит/с, 48.0 KHz) Профессиональный (полное дублирование) Лицензия R5
Аудио #2: Английский ( АС3, 6ch, 448 Кбит/с, 48.0 KHz)
Субтитры: русские, английские
Трейлер

MediaInfo

Источник: Jem.and.the.Holograms.2015.1080p.BluRay.x264-GECKOS
General
Unique ID : 202545253745652319549677871138564611322 (0x9860CC037CFD1BD7A9F432EC58761CFA)
Complete name : Jem.and.the.Holograms.2015.BDRip.1080p.mkv
Format : Matroska
Format version : Version 4 / Version 2
File size : 8.24 GiB
Duration : 1 h 58 min
Overall bit rate : 9 946 kb/s
Encoded date : UTC 2018-05-14 18:13:11
Writing application : mkvmerge v7.1.0 ('Good Love') 64bit built on Jul 27 2014 13:06:55
Writing library : libebml v1.3.0 + libmatroska v1.4.1
Video
ID : 1
Format : AVC
Format/Info : Advanced Video Codec
Format profile : High@L4.1
Format settings : CABAC / 5 Ref Frames
Format settings, CABAC : Yes
Format settings, ReFrames : 5 frames
Codec ID : V_MPEG4/ISO/AVC
Duration : 1 h 58 min
Bit rate : 9 051 kb/s
Width : 1 920 pixels
Height : 800 pixels
Display aspect ratio : 2.40:1
Frame rate mode : Constant
Frame rate : 23.976 FPS
Color space : YUV
Chroma subsampling : 4:2:0
Bit depth : 8 bits
Scan type : Progressive
Bits/(Pixel*Frame) : 0.246
Stream size : 7.49 GiB (91%)
Writing library : x264 core 148 r2638 7599210
Encoding settings : cabac=1 / ref=5 / deblock=1:0:0 / analyse=0x3:0x133 / me=umh / subme=7 / psy=1 / psy_rd=1.00:0.00 / mixed_ref=1 / me_range=16 / chroma_me=1 / trellis=1 / 8x8dct=1 / cqm=0 / deadzone=21,11 / fast_pskip=0 / chroma_qp_offset=-2 / threads=18 / lookahead_threads=3 / sliced_threads=0 / nr=0 / decimate=1 / interlaced=0 / bluray_compat=0 / constrained_intra=0 / bframes=3 / b_pyramid=2 / b_adapt=1 / b_bias=0 / direct=1 / weightb=1 / open_gop=0 / weightp=2 / keyint=250 / keyint_min=23 / scenecut=40 / intra_refresh=0 / rc_lookahead=40 / rc=2pass / mbtree=1 / bitrate=9051 / ratetol=1.0 / qcomp=0.60 / qpmin=0 / qpmax=69 / qpstep=4 / cplxblur=20.0 / qblur=0.5 / ip_ratio=1.40 / aq=1:1.00
Language : English
Default : Yes
Forced : No
Audio #1
ID : 2
Format : AC-3
Format/Info : Audio Coding 3
Codec ID : A_AC3
Duration : 1 h 58 min
Bit rate mode : Constant
Bit rate : 448 kb/s
Channel(s) : 6 channels
Channel positions : Front: L C R, Side: L R, LFE
Sampling rate : 48.0 kHz
Frame rate : 31.250 FPS (1536 SPF)
Bit depth : 16 bits
Compression mode : Lossy
Stream size : 380 MiB (5%)
Language : Russian
Service kind : Complete Main
Default : Yes
Forced : No
Audio #2
ID : 3
Format : AC-3
Format/Info : Audio Coding 3
Codec ID : A_AC3
Duration : 1 h 58 min
Bit rate mode : Constant
Bit rate : 448 kb/s
Channel(s) : 6 channels
Channel positions : Front: L C R, Side: L R, LFE
Sampling rate : 48.0 kHz
Frame rate : 31.250 FPS (1536 SPF)
Bit depth : 16 bits
Compression mode : Lossy
Stream size : 380 MiB (5%)
Language : English
Service kind : Complete Main
Default : No
Forced : No
Text #1
ID : 4
Format : UTF-8
Codec ID : S_TEXT/UTF8
Codec ID/Info : UTF-8 Plain Text
Duration : 1 h 57 min
Bit rate : 98 b/s
Count of elements : 1591
Stream size : 84.8 KiB (0%)
Language : Russian
Default : No
Forced : No
Text #2
ID : 5
Format : UTF-8
Codec ID : S_TEXT/UTF8
Codec ID/Info : UTF-8 Plain Text
Duration : 1 h 52 min
Bit rate : 70 b/s
Count of elements : 1929
Stream size : 57.8 KiB (0%)
Language : English
Default : No
Forced : No
Menu
00:00:00.000 : en:00:00:00.000
00:05:52.978 : en:00:05:52.978
00:12:04.182 : en:00:12:04.182
00:17:51.737 : en:00:17:51.737
00:24:11.825 : en:00:24:11.825
00:28:20.616 : en:00:28:20.616
00:34:24.104 : en:00:34:24.104
00:41:06.172 : en:00:41:06.172
00:46:24.824 : en:00:46:24.824
00:53:10.104 : en:00:53:10.104
00:59:57.177 : en:00:59:57.177
01:05:10.281 : en:01:05:10.281
01:11:39.003 : en:01:11:39.003
01:17:39.780 : en:01:17:39.780
01:24:01.036 : en:01:24:01.036
01:30:54.783 : en:01:30:54.783
01:38:24.816 : en:01:38:24.816
01:43:35.000 : en:01:43:35.000
01:49:41.033 : en:01:49:41.033
01:53:24.756 : en:01:53:24.756

Скриншоты

[Профиль] [ЛС]
Кто просматривает тему:

Показать сообщения:    

Текущее время: Сегодня 15:42

Часовой пояс: GMT



Вы не можете начинать темы
Вы не можете отвечать на сообщения
Вы не можете редактировать свои сообщения
Вы не можете удалять свои сообщения
Вы не можете голосовать в опросах
Вы не можете прикреплять файлы к сообщениям
Вы не можете скачивать файлы