Джем и голограммы / Jem and the Holograms (2015) HDTV 1080i | D

 
Автор Сообщение

достали все ®

Пол:

Стаж: 1 год 8 месяцев

Сообщений: 6521



Награды: 12 (Подробнее)

Top Releaser 4 (Количество: 1) За внесенный вклад в развитие сайта (Количество: 1) Mega Releaser 1 (Количество: 1)
Торрент-статистика

Создавать темы 23-Авг-2016 10:24

[Цитировать]

Информация о фильме
Название: Джем и голограммы
Оригинальное название: Jem and the Holograms
Год выхода: 2015
Жанр: Фантастика, фэнтези, драма, мелодрама, приключения, музыка
Режиссер: Джон М. Чу
В ролях: Обри Пиплз, Стефани Скотт, Аврора Периньо, Хейли Кийоко, Молли Рингуолд, Изабелла Кай Райс, Барнеби Карпентер, Джейсон Кеннеди, Нэйтан Мур, Джульетт Льюис, Райан Гузман, Джастин Аластер, Мишке Батлер, Саманта Ньюарк, Кристофер Скотт
О фильме:
Она могла бы остаться обычной девчонкой из небольшого городка. Но один клип в интернете сделал ее звездой. Джем ждут знаменитые сцены, миллионный контракт и самый крутой парень в Голливуде. Дело за малым, разгадать послание отца. Каждую ночь она отправляется на поиски таинственных голограмм.

Страна: США
Студия: Universal Pictures, Hasbro Studios, Scooter Braun Films
Продолжительность: 01:58:22
Перевод: Дублированный
Файл
Кодек: h.264
Качество: HDTV 1080i
Видео: MPEG-4 AVC, ~ 9145 Кбит/с, 1920x1080, 25.000 кадр/с
Звук:
Русский (AC3, 6 ch, 448 Кбит/с) / Дублированный
Русский (MP2, 2 ch, 192 Кбит/с) / Дублированный
Семпл

О релизе

Автор релиза - Silverok, первоисточник - TV1000 Premium HD

MI

General
ID : 1 (0x1)
Complete name : D:uTorrentDzhem.i.gologrammy.2015.HDTV.1080i.MediaClub.ts
Format : MPEG-TS
File size : 8.52 GiB
Duration : 1 h 58 min
Overall bit rate mode : Variable
Overall bit rate : 10.3 Mb/s
Maximum Overall bit rate : 35.5 Mb/s
Video
ID : 4113 (0x1011)
Menu ID : 1 (0x1)
Format : AVC
Format/Info : Advanced Video Codec
Format profile : High@L4
Format settings, CABAC : Yes
Format settings, ReFrames : 4 frames
Format settings, GOP : M=4, N=28
Codec ID : 27
Duration : 1 h 58 min
Bit rate mode : Variable
Bit rate : 9 145 kb/s
Maximum bit rate : 40.0 Mb/s
Width : 1 920 pixels
Height : 1 080 pixels
Display aspect ratio : 16:9
Frame rate : 25.000 FPS
Standard : Component
Color space : YUV
Chroma subsampling : 4:2:0
Bit depth : 8 bits
Scan type : Interlaced
Scan type, store method : Separated fields
Scan order : Top Field First
Bits/(Pixel*Frame) : 0.176
Stream size : 7.56 GiB (89%)
Color range : Limited
Color primaries : BT.709
Transfer characteristics : BT.709
Matrix coefficients : BT.709
Audio #1
ID : 4352 (0x1100)
Menu ID : 1 (0x1)
Format : AC-3
Format/Info : Audio Coding 3
Mode extension : CM (complete main)
Format settings, Endianness : Big
Codec ID : 129
Duration : 1 h 58 min
Bit rate mode : Constant
Bit rate : 448 kb/s
Channel(s) : 6 channels
Channel positions : Front: L C R, Side: L R, LFE
Sampling rate : 48.0 kHz
Frame rate : 31.250 FPS (1536 spf)
Compression mode : Lossy
Delay relative to video : 80 ms
Stream size : 379 MiB (4%)
Language : Russian
Audio #2
ID : 4353 (0x1101)
Menu ID : 1 (0x1)
Format : MPEG Audio
Format version : Version 1
Format profile : Layer 2
Codec ID : 4
Duration : 1 h 58 min
Bit rate mode : Constant
Bit rate : 192 kb/s
Channel(s) : 2 channels
Sampling rate : 48.0 kHz
Compression mode : Lossy
Delay relative to video : 80 ms
Stream size : 163 MiB (2%)
Language : Russian

Скриншоты

Релиз от: Silverok
[Профиль] [ЛС]
Кто просматривает тему:

Показать сообщения:    

Текущее время: Сегодня 09:56

Часовой пояс: GMT



Вы не можете начинать темы
Вы не можете отвечать на сообщения
Вы не можете редактировать свои сообщения
Вы не можете удалять свои сообщения
Вы не можете голосовать в опросах
Вы не можете прикреплять файлы к сообщениям
Вы не можете скачивать файлы