Джек Райан: Теория хаоса / Jack Ryan: Shadow Recruit (2014) BDRemux 1080p | Лицензия, Гаврилов

 
Автор Сообщение

Zithylord ®

Пол:

Стаж: 5 лет 10 месяцев

Сообщений: 122



Награды: 2 (Подробнее)

Mega Seeder 2 (Количество: 1) Mega Seeder 1 (Количество: 1)
Торрент-статистика

Создавать темы 30-Авг-2014 15:17

[Цитировать]

Название: Джек Райан: Теория хаоса
Оригинальное название: Jack Ryan: Shadow Recruit
Год выпуска: 2014
Жанр: Боевик, триллер, драма
Выпущено: США, Buckaroo Entertainment, Di Bonaventura Pictures, Etalon film, Mace Neufeld Productions, Paramount Pictures
Продолжительность: 01:45:32
Перевод: Дублированный, авторский
Субтитры: Русские, английские, украинские
Режиссер: Кеннет Брана
В ролях: Крис Пайн, Кира Найтли, Кевин Костнер, Кеннет Брана, Колм Фиор, Джемма Чан, Нонсо Анози, Карен Дэвид, Дэвид Пэймер, Ханна Тейлор-Гордон
О фильме: Рядовой аналитик ЦРУ Джек Райан приезжает в Москву, чтобы решить простую задачу: ему нужно проверить операции компании, принадлежащей миллиардеру Виктору Черевину. Но все усложняется, когда Райана пытаются убить. Теперь он вынужден защищаться с оружием в руках, вспоминая армейские навыки и неожиданно для себя оказываясь в роли настоящего спецагента. На помощь Джеку приходят маститый офицер спецслужб Харпер и внезапно оказавшаяся в Москве супруга Кэти. Но облегчит ли это миссию, которую теперь предстоит выполнить Райану, – предотвратить международный заговор, грозящий погрузить весь мир в хаос?

Качество: Blu-Ray Remux (1080p)
Видео: MPEG-4 AVC, 29655 Кбит/с, 1920x1080
Аудио 1: Russian: 48 kHz, AC3, 3/2 (L,C,R,l,r) + LFE ch, 640.00 kbps |Blu-Ray RUS|
Аудио 2: Ukrainian: 48 kHz, AC3, 3/2 (L,C,R,l,r) + LFE ch, 448.00 kbps avg |R5|
Аудио 3: DTS-HD Master Audio Russian 4933 kbps 7.1 / 48 kHz / 4933 kbps / 24-bit (DTS Core: 5.1 / 48 kHz / 1509 kbps / 24-bit) |Гаврилов|
Аудио 4: DTS-HD Master Audio English 5214 kbps 7.1 / 48 kHz / 5214 kbps /

Доп. инфа

За перевод Гаврилова большое спасибо пользователям форума hdtracker:
_MyxAmoP_; KerkP; Hattori Hanzo; chef&chef; kondratzx; Gangster; Brown15; rydanes; Gross1978; Role; karantin66; Pain_70; The Undertaker; kinobbk; Диммон; Letyoha3; fly32; GaryH; HDKing; Luka69; Anymouse.

MI

Unique ID : 191210289135833375428910162971031884114 (0x8FD9C31C677C2F29ABA5EF88D0A1D152)
Complete name : D:Jack.Ryan.Shadow.Recruit.2014.1080p.Remux-Talian-.mkv
Format : Matroska
Format version : Version 2
File size : 30.0 GiB
Duration : 1h 45mn
Overall bit rate mode : Variable
Overall bit rate : 40.7 Mbps
Movie name : -Talian-
Encoded date : UTC 2014-08-28 20:23:37
Writing application : mkvmerge v5.7.0 ('The Whirlwind') built on Jul 8 2012 20:08:51
Writing library : libebml v1.2.3 + libmatroska v1.3.0
Attachment : Yes / Yes
Video
ID : 1
Format : AVC
Format/Info : Advanced Video Codec
Format profile : High@L4.1
Format settings, CABAC : Yes
Format settings, ReFrames : 4 frames
Codec ID : V_MPEG4/ISO/AVC
Duration : 1h 45mn
Bit rate mode : Variable
Bit rate : 34.7 Mbps
Maximum bit rate : 32.0 Mbps
Width : 1 920 pixels
Height : 1 080 pixels
Display aspect ratio : 16:9
Frame rate : 23.976 fps
Color space : YUV
Chroma subsampling : 4:2:0
Bit depth : 8 bits
Scan type : Progressive
Bits/(Pixel*Frame) : 0.698
Stream size : 25.6 GiB (85%)
Title : BDRemux
Language : English
Default : Yes
Forced : No
Audio #1
ID : 2
Format : AC-3
Format/Info : Audio Coding 3
Mode extension : CM (complete main)
Format settings, Endianness : Big
Codec ID : A_AC3
Duration : 1h 45mn
Bit rate mode : Constant
Bit rate : 640 Kbps
Channel(s) : 6 channels
Channel positions : Front: L C R, Side: L R, LFE
Sampling rate : 48.0 KHz
Bit depth : 16 bits
Compression mode : Lossy
Stream size : 483 MiB (2%)
Title : Dub- BD CEE
Language : Russian
Default : Yes
Forced : No
Audio #2
ID : 3
Format : AC-3
Format/Info : Audio Coding 3
Mode extension : CM (complete main)
Format settings, Endianness : Big
Codec ID : A_AC3
Duration : 1h 45mn
Bit rate mode : Constant
Bit rate : 448 Kbps
Channel(s) : 6 channels
Channel positions : Front: L C R, Side: L R, LFE
Sampling rate : 48.0 KHz
Bit depth : 16 bits
Compression mode : Lossy
Stream size : 338 MiB (1%)
Title : DUB
Language : Ukrainian
Default : No
Forced : No
Audio #3
ID : 4
Format : DTS
Format/Info : Digital Theater Systems
Format profile : MA / Core
Codec ID : A_DTS
Duration : 1h 45mn
Bit rate mode : Variable
Bit rate : 2 281 Kbps / 1 510 Kbps
Channel(s) : 8 channels / 6 channels
Channel positions : Front: L C R, Side: L R, Back: L R, LFE / Front: L C R, Side: L R, LFE
Sampling rate : 48.0 KHz
Bit depth : 24 bits
Compression mode : Lossless / Lossy
Title : AVO-Гаврилов
Language : Russian
Default : No
Forced : No
Audio #4
ID : 5
Format : DTS
Format/Info : Digital Theater Systems
Format profile : MA / Core
Codec ID : A_DTS
Duration : 1h 45mn
Bit rate mode : Variable
Bit rate : 1 606 Kbps / 1 510 Kbps
Channel(s) : 8 channels / 6 channels
Channel positions : Front: L C R, Side: L R, Back: L R, LFE / Front: L C R, Side: L R, LFE
Sampling rate : 48.0 KHz
Bit depth : 24 bits
Compression mode : Lossless / Lossy
Title : Original
Language : English
Default : No
Forced : No
Audio #5
ID : 6
Format : AC-3
Format/Info : Audio Coding 3
Mode extension : CM (complete main)
Format settings, Endianness : Big
Codec ID : A_AC3
Duration : 1h 45mn
Bit rate mode : Constant
Bit rate : 224 Kbps
Channel(s) : 2 channels
Channel positions : Front: L R
Sampling rate : 48.0 KHz
Bit depth : 16 bits
Compression mode : Lossy
Stream size : 169 MiB (1%)
Title : Commentary by Kenneth Branagh & Lorenzo di Bonaventura
Language : English
Default : No
Forced : No
Text #1
ID : 7
Format : UTF-8
Codec ID : S_TEXT/UTF8
Codec ID/Info : UTF-8 Plain Text
Title : Sub-Forced
Language : Russian
Default : Yes
Forced : No
Text #2
ID : 8
Format : UTF-8
Codec ID : S_TEXT/UTF8
Codec ID/Info : UTF-8 Plain Text
Title : Sub-Full
Language : Russian
Default : No
Forced : No
Text #3
ID : 9
Format : UTF-8
Codec ID : S_TEXT/UTF8
Codec ID/Info : UTF-8 Plain Text
Title : Sub-Forced
Language : Ukrainian
Default : No
Forced : No
Text #4
ID : 10
Format : UTF-8
Codec ID : S_TEXT/UTF8
Codec ID/Info : UTF-8 Plain Text
Title : Sub-Full
Language : Ukrainian
Default : No
Forced : No
Text #5
ID : 11
Format : UTF-8
Codec ID : S_TEXT/UTF8
Codec ID/Info : UTF-8 Plain Text
Title : Sub-Forced
Language : English
Default : No
Forced : No
Text #6
ID : 12
Format : UTF-8
Codec ID : S_TEXT/UTF8
Codec ID/Info : UTF-8 Plain Text
Title : Sub-Full
Language : English
Default : No
Forced : No
Text #7
ID : 13
Format : UTF-8
Codec ID : S_TEXT/UTF8
Codec ID/Info : UTF-8 Plain Text
Title : Sub-SDH
Language : English
Default : No
Forced : No
Text #8
ID : 14
Format : UTF-8
Codec ID : S_TEXT/UTF8
Codec ID/Info : UTF-8 Plain Text
Title : Sub-Commentary by Kenneth Branagh & Lorenzo di Bonaventura
Language : English
Default : No
Forced : No
Menu
00:00:00.000 : Chapter 01
00:02:21.475 : Chapter 02
00:11:18.261 : Chapter 03
00:17:09.487 : Chapter 04
00:25:20.185 : Chapter 05
00:32:15.433 : Chapter 06
00:43:14.091 : Chapter 07
00:49:48.235 : Chapter 08
00:58:00.102 : Chapter 09
01:13:12.638 : Chapter 10
01:29:49.676 : Chapter 11
01:42:11.375 : Chapter 12

Скриншоты

[Профиль] [ЛС]
Кто просматривает тему:

Показать сообщения:    

Текущее время: Сегодня 21:30

Часовой пояс: GMT



Вы не можете начинать темы
Вы не можете отвечать на сообщения
Вы не можете редактировать свои сообщения
Вы не можете удалять свои сообщения
Вы не можете голосовать в опросах
Вы не можете прикреплять файлы к сообщениям
Вы не можете скачивать файлы