Джек Райан: Теория хаоса / Jack Ryan: Shadow Recruit (Кеннет Брана / Kenneth Branagh) [2014, США, Россия, боевик, триллер, детектив, BDRip-AVC] Dub + Sub Eng, Rus, Ukr + Original Eng

 
Автор Сообщение

sergej644 ®

Пол:

Стаж: 4 года 11 месяцев

Сообщений: 6046

Откуда: Soviet Union



Награды: Нет

Торрент-статистика

Создавать темы 18-Июл-2014 17:08

[Цитировать]

Джек Райан: Теория хаоса / Jack Ryan: Shadow Recruit
«Главное оружие – интеллект»

Страна: США, Россия
Жанр: боевик, триллер, детектив
Год выпуска: 2014
Продолжительность: 01:45:32
Перевод: Профессиональный (дублированный)
Cубтитры: Русские (Форсированные, полные Blu-ray, полные Данис Нурмухаметов), Английский (Forced, full, SDH), Украинские (Форсированные, полные)
Оригинальная аудиодорожка: Английский
Навигация по главам: Есть--Режиссер: Кеннет Брана / Kenneth Branagh--В ролях: Крис Пайн, Кира Найтли, Кеннет Брэна, Кевин Костнер, Алек Утгофф, Джемма Чан, Петер Андерссон, Елена Великанова, Нонсо Анози, Колм Фиор...--Описание: Рядовой аналитик ЦРУ Джек Райан приезжает в Москву, чтобы решить простую задачу: ему нужно проверить операции компании, принадлежащей миллиардеру Виктору Черевину. Но все усложняется, когда Райана пытаются убить. Теперь он вынужден защищаться с оружием в руках, вспоминая армейские навыки и неожиданно для себя оказываясь в роли настоящего спецагента. На помощь Джеку приходят маститый офицер спецслужб Харпер и внезапно оказавшаяся в Москве супруга Кэти. Но облегчит ли это миссию, которую теперь предстоит выполнить Райану, — предотвратить международный заговор, грозящий погрузить весь мир в хаос?--Доп. информация: Kinopoisk | IMDB | Sample |--Качество видео: BDRip-AVC
Формат видео: MKV
Видео: V_MPEG4/ISO/AVC, 960х402, 23.976 fps, 1 211 Kbps.
Аудио 1: 48 kHz, AC3 Dolby Digital, 3/2 (L,C,R,l,r) + LFE ch, ~384.00 kbps avg
Аудио 2: 48 kHz, AC3 Dolby Digital, 3/2 (L,C,R,l,r) + LFE ch, ~384.00 kbps avg
Формат субтитров: softsub (SRT)

Скриншоты

MediaInfo / x264x264

x264 [info]: frame I:1292 Avg QP:16.44 size: 44178
x264 [info]: frame P:32323 Avg QP:20.07 size: 13435
x264 [info]: frame B:118209 Avg QP:22.51 size: 3947
x264 [info]: consecutive B-frames: 2.6% 3.1% 8.1% 16.8% 15.8% 35.1% 6.5% 3.1% 2.1% 1.0% 1.0% 2.4% 0.4%
x264 [info]: mb I I16..4: 10.6% 69.3% 20.1%
x264 [info]: mb P I16..4: 4.1% 11.7% 2.3% P16..4: 42.3% 17.3% 12.9% 0.4% 0.1% skip: 8.8%
x264 [info]: mb B I16..4: 0.2% 0.8% 0.2% B16..8: 38.5% 8.4% 2.0% direct: 3.9% skip:46.0% L0:43.7% L1:47.6% BI: 8.7%
x264 [info]: 8x8 transform intra:65.5% inter:68.4%
x264 [info]: direct mvs spatial:98.9% temporal:1.1%
x264 [info]: coded y,uvDC,uvAC intra: 64.8% 66.8% 41.2% inter: 16.4% 15.8% 3.2%
x264 [info]: i16 v,h,dc,p: 36% 20% 10% 34%
x264 [info]: i8 v,h,dc,ddl,ddr,vr,hd,vl,hu: 18% 9% 7% 8% 12% 12% 12% 10% 11%
x264 [info]: i4 v,h,dc,ddl,ddr,vr,hd,vl,hu: 22% 10% 4% 8% 12% 12% 12% 9% 11%
x264 [info]: i8c dc,h,v,p: 44% 24% 20% 12%
x264 [info]: Weighted P-Frames: Y:5.2% UV:3.0%
x264 [info]: ref P L0: 52.2% 8.3% 15.8% 7.2% 5.2% 3.9% 3.0% 1.7% 1.4% 1.1% 0.2% 0.0%
x264 [info]: ref B L0: 73.1% 13.3% 5.9% 2.8% 1.9% 1.4% 1.1% 0.4% 0.2%
x264 [info]: ref B L1: 92.1% 7.9%
x264 [info]: kb/s:1210.25

MediaInfo

General
Unique ID : 194524950640388868757214446601509599666 (0x9258248A676C56689BF6487E9778F9B2)
Complete name : Jack Ryan. Shadow Recruit.mkv
Format : Matroska
Format version : Version 4 / Version 2
File size : 1.46 GiB
Duration : 1h 45mn
Overall bit rate : 1 981 Kbps
Movie name : Джек Райан: Теория хаоса / Jack Ryan: Shadow Recruit (2014)
Encoded date : UTC 2014-07-11 21:09:05
Writing application : mkvmerge v6.9.1 ('Blue Panther') 64bit built on Apr 18 2014 18:23:38
Writing library : libebml v1.3.0 + libmatroska v1.4.1
Attachment : Yes
Video
ID : 1
Format : AVC
Format/Info : Advanced Video Codec
Format profile : High@L3.2
Format settings, CABAC : Yes
Format settings, ReFrames : 10 frames
Codec ID : V_MPEG4/ISO/AVC
Duration : 1h 45mn
Bit rate : 1 211 Kbps
Width : 960 pixels
Height : 402 pixels
Display aspect ratio : 2.40:1
Frame rate mode : Constant
Frame rate : 23.976 fps
Color space : YUV
Chroma subsampling : 4:2:0
Bit depth : 8 bits
Scan type : Progressive
Bits/(Pixel*Frame) : 0.131
Stream size : 886 MiB (59%)
Title : By optik.1557
Writing library : x264 core 133 r2334 a3ac64b
Encoding settings : cabac=1 / ref=10 / deblock=1:-2:-1 / analyse=0x3:0x133 / me=umh / subme=10 / psy=1 / psy_rd=1.05:0.03 / mixed_ref=1 / me_range=32 / chroma_me=1 / trellis=2 / 8x8dct=1 / cqm=0 / deadzone=21,11 / fast_pskip=0 / chroma_qp_offset=-3 / threads=6 / lookahead_threads=1 / sliced_threads=0 / nr=0 / decimate=1 / interlaced=0 / bluray_compat=0 / constrained_intra=0 / bframes=12 / b_pyramid=2 / b_adapt=2 / b_bias=0 / direct=3 / weightb=1 / open_gop=0 / weightp=2 / keyint=250 / keyint_min=23 / scenecut=40 / intra_refresh=0 / rc_lookahead=60 / rc=2pass / mbtree=0 / bitrate=1211 / ratetol=1.0 / qcomp=0.60 / qpmin=0 / qpmax=69 / qpstep=4 / cplxblur=20.0 / qblur=0.5 / vbv_maxrate=20000 / vbv_bufsize=20000 / nal_hrd=none / ip_ratio=1.40 / pb_ratio=1.30 / aq=2:0.90 / zones=142285,151824,q=30
Language : English
Default : Yes
Forced : No
Audio #1
ID : 2
Format : AC-3
Format/Info : Audio Coding 3
Mode extension : CM (complete main)
Format settings, Endianness : Big
Codec ID : A_AC3
Duration : 1h 45mn
Bit rate mode : Constant
Bit rate : 384 Kbps
Channel(s) : 6 channels
Channel positions : Front: L C R, Side: L R, LFE
Sampling rate : 48.0 KHz
Bit depth : 16 bits
Compression mode : Lossy
Stream size : 290 MiB (19%)
Title : Дубляж
Language : Russian
Default : Yes
Forced : No
Audio #2
ID : 3
Format : AC-3
Format/Info : Audio Coding 3
Mode extension : CM (complete main)
Format settings, Endianness : Big
Codec ID : A_AC3
Duration : 1h 45mn
Bit rate mode : Constant
Bit rate : 384 Kbps
Channel(s) : 6 channels
Channel positions : Front: L C R, Side: L R, LFE
Sampling rate : 48.0 KHz
Bit depth : 16 bits
Compression mode : Lossy
Stream size : 290 MiB (19%)
Language : English
Default : No
Forced : No
Text #1
ID : 4
Format : UTF-8
Codec ID : S_TEXT/UTF8
Codec ID/Info : UTF-8 Plain Text
Title : Форсированные
Language : Russian
Default : Yes
Forced : No
Text #2
ID : 5
Format : UTF-8
Codec ID : S_TEXT/UTF8
Codec ID/Info : UTF-8 Plain Text
Title : Blu-ray
Language : Russian
Default : No
Forced : No
Text #3
ID : 6
Format : UTF-8
Codec ID : S_TEXT/UTF8
Codec ID/Info : UTF-8 Plain Text
Title : Данис Нурмухаметов
Language : Russian
Default : No
Forced : No
Text #4
ID : 7
Format : UTF-8
Codec ID : S_TEXT/UTF8
Codec ID/Info : UTF-8 Plain Text
Title : Forced
Language : English
Default : No
Forced : No
Text #5
ID : 8
Format : UTF-8
Codec ID : S_TEXT/UTF8
Codec ID/Info : UTF-8 Plain Text
Title : Full
Language : English
Default : No
Forced : No
Text #6
ID : 9
Format : UTF-8
Codec ID : S_TEXT/UTF8
Codec ID/Info : UTF-8 Plain Text
Title : SDH
Language : English
Default : No
Forced : No
Text #7
ID : 10
Format : UTF-8
Codec ID : S_TEXT/UTF8
Codec ID/Info : UTF-8 Plain Text
Title : Форсированные
Language : Ukrainian
Default : No
Forced : No
Text #8
ID : 11
Format : UTF-8
Codec ID : S_TEXT/UTF8
Codec ID/Info : UTF-8 Plain Text
Title : Полные
Language : Ukrainian
Default : No
Forced : No
Menu
00:00:00.000 : en:00:00:00.000
00:05:45.470 : en:00:05:45.470
00:12:02.472 : en:00:12:02.472
00:18:11.007 : en:00:18:11.007
00:23:38.792 : en:00:23:38.792
00:31:19.795 : en:00:31:19.795
00:40:26.299 : en:00:40:26.299
00:48:47.466 : en:00:48:47.466
00:57:28.070 : en:00:57:28.070
01:06:19.642 : en:01:06:19.642
01:13:07.466 : en:01:13:07.466
01:21:53.867 : en:01:21:53.867
01:27:07.097 : en:01:27:07.097
01:35:21.507 : en:01:35:21.507
01:38:55.054 : en:01:38:55.054
[Профиль] [ЛС]
Кто просматривает тему:

Показать сообщения:    

Текущее время: Сегодня 00:36

Часовой пояс: GMT



Вы не можете начинать темы
Вы не можете отвечать на сообщения
Вы не можете редактировать свои сообщения
Вы не можете удалять свои сообщения
Вы не можете голосовать в опросах
Вы не можете прикреплять файлы к сообщениям
Вы не можете скачивать файлы