Джек – покоритель великанов в 3Д / Jack the Giant Slayer 3D (Брайан Сингер / Bryan Singer) [2013, Фэнтези, Приключения, BDrip-AVC] Half OverUnder / Вертикальная анаморфная стереопара

 
Автор Сообщение

TorrentFilm ®

Пол:

Стаж: 2 года

Сообщений: 7741



Награды: Нет

Торрент-статистика

Создавать темы 03-Янв-2016 00:03

[Цитировать]

Джeк – пoкopитeль вeликaнoв
Jасk thе Giаnt Slауеr

Год выпуска: 2013
Страна: США (Warner Bros. Pictures, New Line Cinema, Legendary, Original Film, Bad Hat Harry)
Жанр: Фэнтези, Приключения
Продолжительность: 1:54:21
Перевод: Профессиональный (дублированный)
Режиссер: Бpaйaн Cингep / Вrуаn Singеr-Роли исполняли (дублировали):

Jack - Николас Холт (Евгений Вальц)
Isabelle - Элинор Томлинсон (Мария Иващенко)
Elmont - Юэн МакГрегор (Сергей Бурунов)
Roderick - Стэнли Туччи (Алексей Рязанцев)
King Brahmwell - Иэн МакШейн (Андрей Данилюк)
General Fallon - Билл Найи (Василий Стоноженко)
General Fallon's Small Head - Джон Кассир
Fumm - Бен Дэниелс
Wicke - Юэн Бремнер
Crawe - Эдди Марсан
Uncle - Кристофер Фэйрбэнк
Monk - Саймон Лоу (Дмитрий Филимонов)
General Entin - Ральф Браун (Сергей Чихачев)
Jack's Father - Тим Фоли (Всеволод Кузнецов)
Queen - Тэнди Райт (Ольга Зубкова)
-Описание: История начинается с похищения принцессы, что грозит нарушить хрупкий мир между людьми и великанами. Юный фермер возглавляет вылазку в царство гигантов в надежде спасти девушку.

Знаете ли вы, что...:

  • Персонаж Юэна МакГрегора говорит, что у него плохое предчувствие. Эту же фразу дважды произносит его персонаж из «Звездных войн» Оби-Ван Кеноби. Уорвик Дэвис и Ральф Браун также снимались вместе с ним в «Звездные войны: Эпизод 1 — Скрытая угроза» (1999).
  • В фильме есть некоторые намеки на библейскую историю Давида. Давид, как и Джек, убил великана, а затем женился на дочери короля, чтобы самому стать королем. Давид убил Голиафа, используя пращу. А в фильме один из великанов стреляет по городу камнями из рогатки.
  • Во время боя с Родериком Элмонт три раза роняет кинжал Джека, но при этом поднимает его только один раз. В первый раз — когда он падает на гигантскую статую (он не поднимает его), второй — когда клинок выбивают из его рук (позже он подбирает его ртом), в третий раз — когда лезвие пронзает Родерика. Не показывают, как между первым и вторым разом кинжал попадает в руки Элмонта.

Техн. детали съёмки

  • Съёмки: 14 марта 2011 — Июль 2011
  • Формат изображения: 2.35 : 1
  • Камера: Arri Alexa, Panavision Primo, PCZ and Zeiss Ultra Prime Lenses (some scenes)
    Panavision Genesis HD Camera, Panavision Primo and PCZ Lenses (some scenes)
    Red Epic, Panavision Primo, PCZ and Zeiss Ultra Prime Lenses
  • Формат копии: 35 mm (anamorphic) (Kodak Vision 2383)
    70 mm (horizontal) (IMAX DMR blow-up) (also dual-strip 3-D) (Kodak Vision 2383)
    D-Cinema (also 3-D version)
  • Формат съёмок: Redcode RAW
    SxS Pro
    Video (HD)
Премьера: 27 февраля 2013 (21 марта 2013)
Релиз на DVD и Blu-Ray: 20 июня 2013
Бюджет: $195 000 000
Кассовые сборы: $197 626 228

. . .
-Качество: BDRip (by Ash61)
Контейнер: MKV
Формат 3D: Half OverUnder / Вертикальная анаморфная стереопара
Порядок ракурсов: левый ракурс первый
Видео кодек: x264
Аудио кодек: AC3-Видео: AVC / 23,976 fps / 1920х1080p / 9 903 Kbps
Аудио:
#1 - Русский / AC3 / 48 KHz / 5.1 ch / 640 Kbps (Дубляж - BD CEE)
#2 - Украинский / AC3 / 48 KHz / 5.1 ch / 640 Kbps (Дубляж - BD CEE)
#3 - Английский / AC3 / 48 KHz / 5.1 ch / 640 Kbps (Original)
Субтитры:
Вшитые (softsub SRT):
#1 - Русские Форсированные (включены по умолчанию) (3 надписи)
Внешние (SRT UTF-8):
#1 - Русские Форсированные (включены по умолчанию) (3 надписи)
#2 - Русские Полные
#3 - English SDH

MediaInfo

General
Unique ID : 211767931511377412684374063373220491932 (0x9F51052261ACC7ABACC99EAF6DFAB29C)
Complete name : G:\Downloads\JackTheGiantSlayer(3D-halfOU)2013(Ash61)\JackTheGiantSlayer(3D-halfOU)2013(Ash61).mkv
Format : Matroska
Format version : Version 2
File size : 9.64 GiB
Duration : 1h 54mn
Overall bit rate : 12.1 Mbps
Movie name : Джек – покоритель великанов / Jack the Giant Slayer (3D) 2013
Encoded date : UTC 2013-06-18 19:11:08
Writing application : mkvmerge v5.8.0 ('No Sleep / Pillow') built on Sep 2 2012 15:37:04
Writing library : libebml v1.2.3 + libmatroska v1.3.0
Video
ID : 1
Format : AVC
Format/Info : Advanced Video Codec
Format profile : High@L4.1
Format settings, CABAC : Yes
Format settings, ReFrames : 4 frames
Codec ID : V_MPEG4/ISO/AVC
Bit rate : 9 903 Kbps
Width : 1 920 pixels
Height : 1 080 pixels
Display aspect ratio : 16:9
Frame rate mode : Variable
Original frame rate : 23.976 fps
Color space : YUV
Chroma subsampling : 4:2:0
Bit depth : 8 bits
Scan type : Progressive
Title : BDRip by Ash61
Writing library : x264 core 129 r2245 bc13772
Encoding settings : cabac=1 / ref=4 / deblock=1:-3:-3 / analyse=0x3:0x113 / me=umh / subme=9 / psy=1 / psy_rd=1.00:0.15 / mixed_ref=1 / me_range=32 / chroma_me=1 / trellis=2 / 8x8dct=1 / cqm=0 / deadzone=21,11 / fast_pskip=1 / chroma_qp_offset=-3 / threads=12 / lookahead_threads=2 / sliced_threads=0 / nr=0 / decimate=1 / interlaced=0 / bluray_compat=0 / constrained_intra=0 / bframes=8 / b_pyramid=2 / b_adapt=2 / b_bias=0 / direct=3 / weightb=1 / open_gop=0 / weightp=2 / keyint=250 / keyint_min=23 / scenecut=40 / intra_refresh=0 / rc_lookahead=60 / rc=crf / mbtree=1 / crf=17.0 / qcomp=0.70 / qpmin=0 / qpmax=69 / qpstep=4 / vbv_maxrate=40000 / vbv_bufsize=30000 / crf_max=0.0 / nal_hrd=none / frame-packing=4 / ip_ratio=1.40 / aq=1:0.70
Language : English
Default : Yes
Forced : No
Audio #1
ID : 2
Format : AC-3
Format/Info : Audio Coding 3
Mode extension : CM (complete main)
Format settings, Endianness : Big
Codec ID : A_AC3
Duration : 1h 54mn
Bit rate mode : Constant
Bit rate : 640 Kbps
Channel(s) : 6 channels
Channel positions : Front: L C R, Side: L R, LFE
Sampling rate : 48.0 KHz
Bit depth : 16 bits
Compression mode : Lossy
Stream size : 524 MiB (5%)
Title : Дубляж - BD CEE
Language : Russian
Default : Yes
Forced : No
Audio #2
ID : 3
Format : AC-3
Format/Info : Audio Coding 3
Mode extension : CM (complete main)
Format settings, Endianness : Big
Codec ID : A_AC3
Duration : 1h 54mn
Bit rate mode : Constant
Bit rate : 640 Kbps
Channel(s) : 6 channels
Channel positions : Front: L C R, Side: L R, LFE
Sampling rate : 48.0 KHz
Bit depth : 16 bits
Compression mode : Lossy
Stream size : 524 MiB (5%)
Title : Дубляж - BD CEE
Language : Ukrainian
Default : No
Forced : No
Audio #3
ID : 4
Format : AC-3
Format/Info : Audio Coding 3
Mode extension : CM (complete main)
Format settings, Endianness : Big
Codec ID : A_AC3
Duration : 1h 54mn
Bit rate mode : Constant
Bit rate : 640 Kbps
Channel(s) : 6 channels
Channel positions : Front: L C R, Side: L R, LFE
Sampling rate : 48.0 KHz
Bit depth : 16 bits
Compression mode : Lossy
Stream size : 524 MiB (5%)
Title : Original
Language : English
Default : No
Forced : No
Text
ID : 5
Format : UTF-8
Codec ID : S_TEXT/UTF8
Codec ID/Info : UTF-8 Plain Text
Title : Форсированные
Language : Russian
Default : Yes
Forced : No
Menu
00:00:00.000 : :1
00:10:21.371 : :2
00:19:23.746 : :3
00:29:52.207 : :4
00:38:55.375 : :5
00:49:24.879 : :6
00:59:35.489 : :7
01:09:26.287 : :8
01:20:39.168 : :9
01:29:51.303 : :10
01:39:02.812 : :11
01:45:57.726 : :12

Для оценки 3д - Анимированные скрины












18.06.2013 - Релиз обновлён - русская дорога заменена на лицензию, добавлена украинская и субтитры.
Желающие, скачайте заново торрент-файл.
[Профиль] [ЛС]
Кто просматривает тему:

Показать сообщения:    

Текущее время: Сегодня 03:12

Часовой пояс: GMT



Вы не можете начинать темы
Вы не можете отвечать на сообщения
Вы не можете редактировать свои сообщения
Вы не можете удалять свои сообщения
Вы не можете голосовать в опросах
Вы не можете прикреплять файлы к сообщениям
Вы не можете скачивать файлы